  0
SECTION
  2
HEADER
  9
$ACADVER
  1
AC1014
  9
$ACADMAINTVER
 70
     0
  9
$DWGCODEPAGE
  3
ANSI_1250
  9
$INSBASE
 10
0.0
 20
0.0
 30
0.0
  9
$EXTMIN
 10
-27.810045
 20
-336.177655
 30
0.0
  9
$EXTMAX
 10
396.410069
 20
162.706017
 30
0.0
  9
$LIMMIN
 10
-1040.805314
 20
-347.068924
  9
$LIMMAX
 10
643.686187
 20
495.293187
  9
$ORTHOMODE
 70
     1
  9
$REGENMODE
 70
     1
  9
$FILLMODE
 70
     1
  9
$QTEXTMODE
 70
     0
  9
$MIRRTEXT
 70
     1
  9
$DRAGMODE
 70
     2
  9
$LTSCALE
 40
15.0
  9
$OSMODE
 70
  1023
  9
$ATTMODE
 70
     1
  9
$TEXTSIZE
 40
15.0
  9
$TRACEWID
 40
1.0
  9
$TEXTSTYLE
  7
ED10
  9
$CLAYER
  8
V0-OBRYS
  9
$CELTYPE
  6
CONTINUOUS
  9
$CECOLOR
 62
    90
  9
$CELTSCALE
 40
1.0
  9
$DELOBJ
 70
     1
  9
$DISPSILH
 70
     0
  9
$DIMSCALE
 40
0.0
  9
$DIMASZ
 40
12.0
  9
$DIMEXO
 40
1.0
  9
$DIMDLI
 40
3.75
  9
$DIMRND
 40
0.0
  9
$DIMDLE
 40
0.0
  9
$DIMEXE
 40
1.25
  9
$DIMTP
 40
0.0
  9
$DIMTM
 40
0.0
  9
$DIMTXT
 40
10.0
  9
$DIMCEN
 40
3.0
  9
$DIMTSZ
 40
0.0
  9
$DIMTOL
 70
     0
  9
$DIMLIM
 70
     0
  9
$DIMTIH
 70
     0
  9
$DIMTOH
 70
     0
  9
$DIMSE1
 70
     0
  9
$DIMSE2
 70
     0
  9
$DIMTAD
 70
     1
  9
$DIMZIN
 70
     8
  9
$DIMBLK
  1

  9
$DIMASO
 70
     1
  9
$DIMSHO
 70
     1
  9
$DIMPOST
  1

  9
$DIMAPOST
  1

  9
$DIMALT
 70
     0
  9
$DIMALTD
 70
     4
  9
$DIMALTF
 40
0.0394
  9
$DIMLFAC
 40
1.0
  9
$DIMTOFL
 70
     1
  9
$DIMTVP
 40
0.0
  9
$DIMTIX
 70
     0
  9
$DIMSOXD
 70
     0
  9
$DIMSAH
 70
     1
  9
$DIMBLK1
  1
_OPEN
  9
$DIMBLK2
  1
_OPEN
  9
$DIMSTYLE
  2
ED5
  9
$DIMCLRD
 70
   256
  9
$DIMCLRE
 70
   256
  9
$DIMCLRT
 70
   256
  9
$DIMTFAC
 40
1.0
  9
$DIMGAP
 40
1.5
  9
$DIMJUST
 70
     0
  9
$DIMSD1
 70
     0
  9
$DIMSD2
 70
     0
  9
$DIMTOLJ
 70
     1
  9
$DIMTZIN
 70
     8
  9
$DIMALTZ
 70
     0
  9
$DIMALTTZ
 70
     0
  9
$DIMFIT
 70
     3
  9
$DIMUPT
 70
     0
  9
$DIMUNIT
 70
     2
  9
$DIMDEC
 70
     0
  9
$DIMTDEC
 70
     1
  9
$DIMALTU
 70
     8
  9
$DIMALTTD
 70
     4
  9
$DIMTXSTY
  7
ED5
  9
$DIMAUNIT
 70
     0
  9
$LUNITS
 70
     2
  9
$LUPREC
 70
     4
  9
$SKETCHINC
 40
1.0
  9
$FILLETRAD
 40
5.0
  9
$AUNITS
 70
     0
  9
$AUPREC
 70
     0
  9
$MENU
  1
.
  9
$ELEVATION
 40
0.0
  9
$PELEVATION
 40
0.0
  9
$THICKNESS
 40
0.0
  9
$LIMCHECK
 70
     0
  9
$BLIPMODE
 70
     1
  9
$CHAMFERA
 40
10.0
  9
$CHAMFERB
 40
10.0
  9
$CHAMFERC
 40
20.0
  9
$CHAMFERD
 40
0.0
  9
$SKPOLY
 70
     0
  9
$TDCREATE
 40
2450763.421427893
  9
$TDUPDATE
 40
2452958.647699305
  9
$TDINDWG
 40
1.3156965278
  9
$TDUSRTIMER
 40
1.3156965278
  9
$USRTIMER
 70
     1
  9
$ANGBASE
 50
0.0
  9
$ANGDIR
 70
     0
  9
$PDMODE
 70
     3
  9
$PDSIZE
 40
15.0
  9
$PLINEWID
 40
0.0
  9
$COORDS
 70
     1
  9
$SPLFRAME
 70
     0
  9
$SPLINETYPE
 70
     6
  9
$SPLINESEGS
 70
     8
  9
$ATTDIA
 70
     0
  9
$ATTREQ
 70
     1
  9
$HANDLING
 70
     1
  9
$HANDSEED
  5
961
  9
$SURFTAB1
 70
     6
  9
$SURFTAB2
 70
     6
  9
$SURFTYPE
 70
     6
  9
$SURFU
 70
     6
  9
$SURFV
 70
     6
  9
$UCSNAME
  2

  9
$UCSORG
 10
50.25085352163344
 20
-3.192551623385639
 30
0.0
  9
$UCSXDIR
 10
1.0
 20
0.0
 30
0.0
  9
$UCSYDIR
 10
0.0
 20
1.0
 30
0.0
  9
$PUCSNAME
  2

  9
$PUCSORG
 10
0.0
 20
0.0
 30
0.0
  9
$PUCSXDIR
 10
1.0
 20
0.0
 30
0.0
  9
$PUCSYDIR
 10
0.0
 20
1.0
 30
0.0
  9
$USERI1
 70
     0
  9
$USERI2
 70
     0
  9
$USERI3
 70
     2
  9
$USERI4
 70
     2
  9
$USERI5
 70
     6
  9
$USERR1
 40
281.0
  9
$USERR2
 40
321.0
  9
$USERR3
 40
0.0
  9
$USERR4
 40
0.0
  9
$USERR5
 40
0.0
  9
$WORLDVIEW
 70
     1
  9
$SHADEDGE
 70
     3
  9
$SHADEDIF
 70
    70
  9
$TILEMODE
 70
     1
  9
$MAXACTVP
 70
    16
  9
$PINSBASE
 10
0.0
 20
0.0
 30
0.0
  9
$PLIMCHECK
 70
     0
  9
$PEXTMIN
 10
1.000000E+20
 20
1.000000E+20
 30
1.000000E+20
  9
$PEXTMAX
 10
-1.000000E+20
 20
-1.000000E+20
 30
-1.000000E+20
  9
$PLIMMIN
 10
0.0
 20
0.0
  9
$PLIMMAX
 10
420.0
 20
297.0
  9
$UNITMODE
 70
     0
  9
$VISRETAIN
 70
     0
  9
$PLINEGEN
 70
     0
  9
$PSLTSCALE
 70
     0
  9
$TREEDEPTH
 70
  3020
  9
$PICKSTYLE
 70
     1
  9
$CMLSTYLE
  2
STANDARD
  9
$CMLJUST
 70
     0
  9
$CMLSCALE
 40
1.0
  9
$PROXYGRAPHICS
 70
     1
  9
$MEASUREMENT
 70
     0
  0
ENDSEC
  0
SECTION
  2
CLASSES
  0
CLASS
  1
LWPOLYLINE
  2
AcDbPolyline
  3
"AutoCAD"
 90
        0
280
     0
281
     1
  0
CLASS
  1
DICTIONARYVAR
  2
AcDbDictionaryVar
  3
"AutoCAD"
 90
        0
280
     0
281
     0
  0
CLASS
  1
HATCH
  2
AcDbHatch
  3
"ACAD_SEDONA"
 90
        0
280
     0
281
     1
  0
ENDSEC
  0
SECTION
  2
TABLES
  0
TABLE
  2
VPORT
  5
12
100
AcDbSymbolTable
 70
     2
  0
VPORT
  5
960
100
AcDbSymbolTableRecord
100
AcDbViewportTableRecord
  2
*ACTIVE
 70
     0
 10
0.0
 20
0.0
 11
1.0
 21
1.0
 12
203.491102
 22
-96.978999
 13
0.0
 23
0.0
 14
1.0
 24
1.0
 15
5.0
 25
5.0
 16
0.0
 26
0.0
 36
1.0
 17
0.0
 27
0.0
 37
0.0
 40
552.945146
 41
1.73348
 42
50.0
 43
0.0
 44
0.0
 50
0.0
 51
0.0
 71
     0
 72
   100
 73
     1
 74
     0
 75
     0
 76
     0
 77
     0
 78
     0
  0
ENDTAB
  0
TABLE
  2
LTYPE
  5
D
100
AcDbSymbolTable
 70
    46
  0
LTYPE
  5
E
100
AcDbSymbolTableRecord
100
AcDbLinetypeTableRecord
  2
BYBLOCK
 70
     0
  3

 72
    65
 73
     0
 40
0.0
  0
LTYPE
  5
F
100
AcDbSymbolTableRecord
100
AcDbLinetypeTableRecord
  2
BYLAYER
 70
     0
  3

 72
    65
 73
     0
 40
0.0
  0
LTYPE
  5
5
100
AcDbSymbolTableRecord
100
AcDbLinetypeTableRecord
  2
CONTINUOUS
 70
     0
  3
Solid line
 72
    65
 73
     0
 40
0.0
  0
LTYPE
  5
50
100
AcDbSymbolTableRecord
100
AcDbLinetypeTableRecord
  2
DASHDOT
 70
     0
  3
__ . __ . __ . __ . __ . __ . __ . __ . __ . __
 72
    65
 73
     4
 40
1.0
 49
0.5
 74
     0
 49
-0.25
 74
     0
 49
0.0
 74
     0
 49
-0.25
 74
     0
  0
LTYPE
  5
2C7
100
AcDbSymbolTableRecord
100
AcDbLinetypeTableRecord
  2
DASHED
 70
     0
  3
Dashed __ __ __ __ __ __ __ __ __ __ __ __ __ _
 72
    65
 73
     2
 40
19.05
 49
12.7
 74
     0
 49
-6.35
 74
     0
  0
LTYPE
  5
2C8
100
AcDbSymbolTableRecord
100
AcDbLinetypeTableRecord
  2
DOT2
 70
     0
  3
...............................................
 72
    65
 73
     2
 40
0.125
 49
0.0
 74
     0
 49
-0.125
 74
     0
  0
LTYPE
  5
2C9
100
AcDbSymbolTableRecord
100
AcDbLinetypeTableRecord
  2
ACAD_ISO02W100
 70
     0
  3
ISO dash __ __ __ __ __ __ __ __ __ __ __ __ __
 72
    65
 73
     2
 40
15.0
 49
12.0
 74
     0
 49
-3.0
 74
     0
  0
LTYPE
  5
2CA
100
AcDbSymbolTableRecord
100
AcDbLinetypeTableRecord
  2
ACAD_ISO03W100
 70
     0
  3
ISO dash space __    __    __    __    __    __
 72
    65
 73
     2
 40
30.0
 49
12.0
 74
     0
 49
-18.0
 74
     0
  0
LTYPE
  5
2CB
100
AcDbSymbolTableRecord
100
AcDbLinetypeTableRecord
  2
ACAD_ISO04W100
 70
     0
  3
ISO long-dash dot ____ . ____ . ____ . ____ . _
 72
    65
 73
     4
 40
30.5
 49
24.0
 74
     0
 49
-3.0
 74
     0
 49
0.5
 74
     0
 49
-3.0
 74
     0
  0
LTYPE
  5
2CC
100
AcDbSymbolTableRecord
100
AcDbLinetypeTableRecord
  2
ACAD_ISO05W100
 70
     0
  3
ISO long-dash double-dot ____ .. ____ .. ____ .
 72
    65
 73
     6
 40
34.0
 49
24.0
 74
     0
 49
-3.0
 74
     0
 49
0.5
 74
     0
 49
-3.0
 74
     0
 49
0.5
 74
     0
 49
-3.0
 74
     0
  0
LTYPE
  5
2CD
100
AcDbSymbolTableRecord
100
AcDbLinetypeTableRecord
  2
ACAD_ISO06W100
 70
     0
  3
ISO long-dash triple-dot ____ ... ____ ... ____
 72
    65
 73
     8
 40
37.5
 49
24.0
 74
     0
 49
-3.0
 74
     0
 49
0.5
 74
     0
 49
-3.0
 74
     0
 49
0.5
 74
     0
 49
-3.0
 74
     0
 49
0.5
 74
     0
 49
-3.0
 74
     0
  0
LTYPE
  5
2CE
100
AcDbSymbolTableRecord
100
AcDbLinetypeTableRecord
  2
ACAD_ISO07W100
 70
     0
  3
ISO dot . . . . . . . . . . . . . . . . . . . .
 72
    65
 73
     2
 40
3.5
 49
0.5
 74
     0
 49
-3.0
 74
     0
  0
LTYPE
  5
2CF
100
AcDbSymbolTableRecord
100
AcDbLinetypeTableRecord
  2
ACAD_ISO08W100
 70
     0
  3
ISO long-dash short-dash ____ __ ____ __ ____ _
 72
    65
 73
     4
 40
36.0
 49
24.0
 74
     0
 49
-3.0
 74
     0
 49
6.0
 74
     0
 49
-3.0
 74
     0
  0
LTYPE
  5
2D0
100
AcDbSymbolTableRecord
100
AcDbLinetypeTableRecord
  2
ACAD_ISO09W100
 70
     0
  3
ISO long-dash double-short-dash ____ __ __ ____
 72
    65
 73
     6
 40
45.0
 49
24.0
 74
     0
 49
-3.0
 74
     0
 49
6.0
 74
     0
 49
-3.0
 74
     0
 49
6.0
 74
     0
 49
-3.0
 74
     0
  0
LTYPE
  5
2D1
100
AcDbSymbolTableRecord
100
AcDbLinetypeTableRecord
  2
ACAD_ISO10W100
 70
     0
  3
ISO dash dot __ . __ . __ . __ . __ . __ . __ .
 72
    65
 73
     4
 40
18.5
 49
12.0
 74
     0
 49
-3.0
 74
     0
 49
0.5
 74
     0
 49
-3.0
 74
     0
  0
LTYPE
  5
2D2
100
AcDbSymbolTableRecord
100
AcDbLinetypeTableRecord
  2
ACAD_ISO11W100
 70
     0
  3
ISO double-dash dot __ __ . __ __ . __ __ . __ 
 72
    65
 73
     6
 40
33.5
 49
12.0
 74
     0
 49
-3.0
 74
     0
 49
12.0
 74
     0
 49
-3.0
 74
     0
 49
0.5
 74
     0
 49
-3.0
 74
     0
  0
LTYPE
  5
2D3
100
AcDbSymbolTableRecord
100
AcDbLinetypeTableRecord
  2
ACAD_ISO12W100
 70
     0
  3
ISO dash double-dot __ . . __ . . __ . . __ . .
 72
    65
 73
     6
 40
22.0
 49
12.0
 74
     0
 49
-3.0
 74
     0
 49
0.5
 74
     0
 49
-3.0
 74
     0
 49
0.5
 74
     0
 49
-3.0
 74
     0
  0
LTYPE
  5
2D4
100
AcDbSymbolTableRecord
100
AcDbLinetypeTableRecord
  2
ACAD_ISO13W100
 70
     0
  3
ISO double-dash double-dot __ __ . . __ __ . . 
 72
    65
 73
     8
 40
37.0
 49
12.0
 74
     0
 49
-3.0
 74
     0
 49
12.0
 74
     0
 49
-3.0
 74
     0
 49
0.5
 74
     0
 49
-3.0
 74
     0
 49
0.5
 74
     0
 49
-3.0
 74
     0
  0
LTYPE
  5
2D5
100
AcDbSymbolTableRecord
100
AcDbLinetypeTableRecord
  2
ACAD_ISO14W100
 70
     0
  3
ISO dash triple-dot __ . . . __ . . . __ . . . 
 72
    65
 73
     8
 40
25.5
 49
12.0
 74
     0
 49
-3.0
 74
     0
 49
0.5
 74
     0
 49
-3.0
 74
     0
 49
0.5
 74
     0
 49
-3.0
 74
     0
 49
0.5
 74
     0
 49
-3.0
 74
     0
  0
LTYPE
  5
2D6
100
AcDbSymbolTableRecord
100
AcDbLinetypeTableRecord
  2
ACAD_ISO15W100
 70
     0
  3
ISO double-dash triple-dot __ __ . . . __ __ . 
 72
    65
 73
    10
 40
40.5
 49
12.0
 74
     0
 49
-3.0
 74
     0
 49
12.0
 74
     0
 49
-3.0
 74
     0
 49
0.5
 74
     0
 49
-3.0
 74
     0
 49
0.5
 74
     0
 49
-3.0
 74
     0
 49
0.5
 74
     0
 49
-3.0
 74
     0
  0
LTYPE
  5
2D7
100
AcDbSymbolTableRecord
100
AcDbLinetypeTableRecord
  2
BATTING
 70
     0
  3
Batting SSSSSSSSSSSSSSSSSSSSSSSSSSSSSSSSSSSSSSS
 72
    65
 73
     4
 40
0.4001
 49
0.0001
 74
     0
 49
-0.1
 74
     4
 75
   134
340
2F7
 46
0.1
 50
0.0
 44
-0.1
 45
0.0
 49
-0.2
 74
     4
 75
   134
340
2F7
 46
0.1
 50
180.0
 44
0.1
 45
0.0
 49
-0.1
 74
     0
  0
LTYPE
  5
2D8
100
AcDbSymbolTableRecord
100
AcDbLinetypeTableRecord
  2
BORDER
 70
     0
  3
Border __ __ . __ __ . __ __ . __ __ . __ __ .
 72
    65
 73
     6
 40
1.75
 49
0.5
 74
     0
 49
-0.25
 74
     0
 49
0.5
 74
     0
 49
-0.25
 74
     0
 49
0.0
 74
     0
 49
-0.25
 74
     0
  0
LTYPE
  5
2D9
100
AcDbSymbolTableRecord
100
AcDbLinetypeTableRecord
  2
BORDER2
 70
     0
  3
Border (.5x) __.__.__.__.__.__.__.__.__.__.__.
 72
    65
 73
     6
 40
0.875
 49
0.25
 74
     0
 49
-0.125
 74
     0
 49
0.25
 74
     0
 49
-0.125
 74
     0
 49
0.0
 74
     0
 49
-0.125
 74
     0
  0
LTYPE
  5
2DA
100
AcDbSymbolTableRecord
100
AcDbLinetypeTableRecord
  2
BORDERX2
 70
     0
  3
Border (2x) ____  ____  .  ____  ____  .  ___
 72
    65
 73
     6
 40
3.5
 49
1.0
 74
     0
 49
-0.5
 74
     0
 49
1.0
 74
     0
 49
-0.5
 74
     0
 49
0.0
 74
     0
 49
-0.5
 74
     0
  0
LTYPE
  5
2DB
100
AcDbSymbolTableRecord
100
AcDbLinetypeTableRecord
  2
CENTER
 70
     0
  3
Center ____ _ ____ _ ____ _ ____ _ ____ _ ____
 72
    65
 73
     4
 40
2.0
 49
1.25
 74
     0
 49
-0.25
 74
     0
 49
0.25
 74
     0
 49
-0.25
 74
     0
  0
LTYPE
  5
2DC
100
AcDbSymbolTableRecord
100
AcDbLinetypeTableRecord
  2
CENTER2
 70
     0
  3
Center (.5x) ___ _ ___ _ ___ _ ___ _ ___ _ ___
 72
    65
 73
     4
 40
1.125
 49
0.75
 74
     0
 49
-0.125
 74
     0
 49
0.125
 74
     0
 49
-0.125
 74
     0
  0
LTYPE
  5
2DD
100
AcDbSymbolTableRecord
100
AcDbLinetypeTableRecord
  2
CENTERX2
 70
     0
  3
Center (2x) ________  __  ________  __  _____
 72
    65
 73
     4
 40
4.0
 49
2.5
 74
     0
 49
-0.5
 74
     0
 49
0.5
 74
     0
 49
-0.5
 74
     0
  0
LTYPE
  5
2DE
100
AcDbSymbolTableRecord
100
AcDbLinetypeTableRecord
  2
DASHDOT2
 70
     0
  3
Dash dot (.5x) _._._._._._._._._._._._._._._.
 72
    65
 73
     4
 40
0.5
 49
0.25
 74
     0
 49
-0.125
 74
     0
 49
0.0
 74
     0
 49
-0.125
 74
     0
  0
LTYPE
  5
2DF
100
AcDbSymbolTableRecord
100
AcDbLinetypeTableRecord
  2
DASHDOTX2
 70
     0
  3
Dash dot (2x) ____  .  ____  .  ____  .  ___
 72
    65
 73
     4
 40
2.0
 49
1.0
 74
     0
 49
-0.5
 74
     0
 49
0.0
 74
     0
 49
-0.5
 74
     0
  0
LTYPE
  5
2E0
100
AcDbSymbolTableRecord
100
AcDbLinetypeTableRecord
  2
DASHED2
 70
     0
  3
Dashed (.5x) _ _ _ _ _ _ _ _ _ _ _ _ _ _ _ _ _
 72
    65
 73
     2
 40
0.375
 49
0.25
 74
     0
 49
-0.125
 74
     0
  0
LTYPE
  5
2E1
100
AcDbSymbolTableRecord
100
AcDbLinetypeTableRecord
  2
DASHEDX2
 70
     0
  3
Dashed (2x) ____  ____  ____  ____  ____  ___
 72
    65
 73
     2
 40
1.5
 49
1.0
 74
     0
 49
-0.5
 74
     0
  0
LTYPE
  5
2E2
100
AcDbSymbolTableRecord
100
AcDbLinetypeTableRecord
  2
DIVIDE
 70
     0
  3
Divide ____ . . ____ . . ____ . . ____ . . ____
 72
    65
 73
     6
 40
1.25
 49
0.5
 74
     0
 49
-0.25
 74
     0
 49
0.0
 74
     0
 49
-0.25
 74
     0
 49
0.0
 74
     0
 49
-0.25
 74
     0
  0
LTYPE
  5
2E3
100
AcDbSymbolTableRecord
100
AcDbLinetypeTableRecord
  2
DIVIDE2
 70
     0
  3
Divide (.5x) __..__..__..__..__..__..__..__.._
 72
    65
 73
     6
 40
0.625
 49
0.25
 74
     0
 49
-0.125
 74
     0
 49
0.0
 74
     0
 49
-0.125
 74
     0
 49
0.0
 74
     0
 49
-0.125
 74
     0
  0
LTYPE
  5
2E4
100
AcDbSymbolTableRecord
100
AcDbLinetypeTableRecord
  2
DIVIDEX2
 70
     0
  3
Divide (2x) ________  .  .  ________  .  .  _
 72
    65
 73
     6
 40
2.5
 49
1.0
 74
     0
 49
-0.5
 74
     0
 49
0.0
 74
     0
 49
-0.5
 74
     0
 49
0.0
 74
     0
 49
-0.5
 74
     0
  0
LTYPE
  5
2E5
100
AcDbSymbolTableRecord
100
AcDbLinetypeTableRecord
  2
DOT
 70
     0
  3
Dot . . . . . . . . . . . . . . . . . . . . . .
 72
    65
 73
     2
 40
0.25
 49
0.0
 74
     0
 49
-0.25
 74
     0
  0
LTYPE
  5
2E6
100
AcDbSymbolTableRecord
100
AcDbLinetypeTableRecord
  2
DOTX2
 70
     0
  3
Dot (2x) .  .  .  .  .  .  .  .  .  .  .  .  . 
 72
    65
 73
     2
 40
0.5
 49
0.0
 74
     0
 49
-0.5
 74
     0
  0
LTYPE
  5
2E7
100
AcDbSymbolTableRecord
100
AcDbLinetypeTableRecord
  2
FENCELINE1
 70
     0
  3
Fenceline circle ----0-----0----0-----0----0---
 72
    65
 73
     4
 40
1.45
 49
0.25
 74
     0
 49
-0.1
 74
     4
 75
   133
340
2F7
 46
0.1
 50
0.0
 44
-0.1
 45
0.0
 49
-0.1
 74
     0
 49
1.0
 74
     0
  0
LTYPE
  5
2E8
100
AcDbSymbolTableRecord
100
AcDbLinetypeTableRecord
  2
FENCELINE2
 70
     0
  3
Fenceline square ----[]-----[]----[]-----[]----
 72
    65
 73
     4
 40
1.45
 49
0.25
 74
     0
 49
-0.1
 74
     4
 75
   132
340
2F7
 46
0.1
 50
0.0
 44
-0.1
 45
0.0
 49
-0.1
 74
     0
 49
1.0
 74
     0
  0
LTYPE
  5
2E9
100
AcDbSymbolTableRecord
100
AcDbLinetypeTableRecord
  2
GAS_LINE
 70
     0
  3
Gas line ----GAS----GAS----GAS----GAS----GAS---
 72
    65
 73
     3
 40
0.95
 49
0.5
 74
     0
 49
-0.2
 74
     2
 75
     0
340
C
 46
0.1
 50
0.0
 44
-0.1
 45
-0.05
  9
GAS
 49
-0.25
 74
     0
  0
LTYPE
  5
2EA
100
AcDbSymbolTableRecord
100
AcDbLinetypeTableRecord
  2
HIDDEN
 70
     0
  3
Hidden __ __ __ __ __ __ __ __ __ __ __ __ __ _
 72
    65
 73
     2
 40
0.375
 49
0.25
 74
     0
 49
-0.125
 74
     0
  0
LTYPE
  5
2EB
100
AcDbSymbolTableRecord
100
AcDbLinetypeTableRecord
  2
HIDDEN2
 70
     0
  3
Hidden (.5x) _ _ _ _ _ _ _ _ _ _ _ _ _ _ _ _ _
 72
    65
 73
     2
 40
0.1875
 49
0.125
 74
     0
 49
-0.0625
 74
     0
  0
LTYPE
  5
2EC
100
AcDbSymbolTableRecord
100
AcDbLinetypeTableRecord
  2
HIDDENX2
 70
     0
  3
Hidden (2x) ____ ____ ____ ____ ____ ____ ____
 72
    65
 73
     2
 40
0.75
 49
0.5
 74
     0
 49
-0.25
 74
     0
  0
LTYPE
  5
2ED
100
AcDbSymbolTableRecord
100
AcDbLinetypeTableRecord
  2
HOT_WATER_SUPPLY
 70
     0
  3
Hot water supply ---- HW ---- HW ---- HW ----
 72
    65
 73
     3
 40
0.9
 49
0.5
 74
     0
 49
-0.2
 74
     2
 75
     0
340
C
 46
0.1
 50
0.0
 44
-0.1
 45
-0.05
  9
HW
 49
-0.2
 74
     0
  0
LTYPE
  5
2EE
100
AcDbSymbolTableRecord
100
AcDbLinetypeTableRecord
  2
PHANTOM
 70
     0
  3
Phantom ______  __  __  ______  __  __  ______
 72
    65
 73
     6
 40
2.5
 49
1.25
 74
     0
 49
-0.25
 74
     0
 49
0.25
 74
     0
 49
-0.25
 74
     0
 49
0.25
 74
     0
 49
-0.25
 74
     0
  0
LTYPE
  5
2EF
100
AcDbSymbolTableRecord
100
AcDbLinetypeTableRecord
  2
PHANTOM2
 70
     0
  3
Phantom (.5x) ___ _ _ ___ _ _ ___ _ _ ___ _ _
 72
    65
 73
     6
 40
1.25
 49
0.625
 74
     0
 49
-0.125
 74
     0
 49
0.125
 74
     0
 49
-0.125
 74
     0
 49
0.125
 74
     0
 49
-0.125
 74
     0
  0
LTYPE
  5
2F0
100
AcDbSymbolTableRecord
100
AcDbLinetypeTableRecord
  2
PHANTOMX2
 70
     0
  3
Phantom (2x) ____________    ____    ____   _
 72
    65
 73
     6
 40
5.0
 49
2.5
 74
     0
 49
-0.5
 74
     0
 49
0.5
 74
     0
 49
-0.5
 74
     0
 49
0.5
 74
     0
 49
-0.5
 74
     0
  0
LTYPE
  5
2F1
100
AcDbSymbolTableRecord
100
AcDbLinetypeTableRecord
  2
TRACKS
 70
     0
  3
Tracks -|-|-|-|-|-|-|-|-|-|-|-|-|-|-|-|-|-|-|-|
 72
    65
 73
     2
 40
0.3
 49
0.15
 74
     4
 75
   130
340
2F7
 46
0.25
 50
0.0
 44
0.0
 45
0.0
 49
0.15
 74
     0
  0
LTYPE
  5
2F2
100
AcDbSymbolTableRecord
100
AcDbLinetypeTableRecord
  2
ZIGZAG
 70
     0
  3
Zig zag /\/\/\/\/\/\/\/\/\/\/\/\/\/\/\/\/\/\/\/
 72
    65
 73
     4
 40
0.8001
 49
0.0001
 74
     0
 49
-0.2
 74
     4
 75
   131
340
2F7
 46
0.2
 50
0.0
 44
-0.2
 45
0.0
 49
-0.4
 74
     4
 75
   131
340
2F7
 46
0.2
 50
180.0
 44
0.2
 45
0.0
 49
-0.2
 74
     0
  0
ENDTAB
  0
TABLE
  2
LAYER
  5
A
100
AcDbSymbolTable
 70
     7
  0
LAYER
  5
4
100
AcDbSymbolTableRecord
100
AcDbLayerTableRecord
  2
0
 70
     0
 62
     7
  6
CONTINUOUS
  0
LAYER
  5
2E
100
AcDbSymbolTableRecord
100
AcDbLayerTableRecord
  2
DEFPOINTS
 70
     0
 62
     7
  6
CONTINUOUS
  0
LAYER
  5
4E
100
AcDbSymbolTableRecord
100
AcDbLayerTableRecord
  2
V0-OBRYS
 70
     0
 62
    90
  6
CONTINUOUS
  0
LAYER
  5
24
100
AcDbSymbolTableRecord
100
AcDbLayerTableRecord
  2
V0-VYPLNE
 70
     0
 62
    52
  6
CONTINUOUS
  0
LAYER
  5
91
100
AcDbSymbolTableRecord
100
AcDbLayerTableRecord
  2
V0-NAZVY
 70
     0
 62
   210
  6
CONTINUOUS
  0
LAYER
  5
FE
100
AcDbSymbolTableRecord
100
AcDbLayerTableRecord
  2
V0-ZBYTEK
 70
     0
 62
    51
  6
CONTINUOUS
  0
LAYER
  5
7DB
100
AcDbSymbolTableRecord
100
AcDbLayerTableRecord
  2
V0-KOTY
 70
     0
 62
    41
  6
CONTINUOUS
  0
ENDTAB
  0
TABLE
  2
STYLE
  5
B
100
AcDbSymbolTable
 70
     8
  0
STYLE
  5
C
100
AcDbSymbolTableRecord
100
AcDbTextStyleTableRecord
  2
STANDARD
 70
     0
 40
0.0
 41
1.0
 50
0.0
 71
     0
 42
15.0
  3
ISOCP
  4

  0
STYLE
  5
2F3
100
AcDbSymbolTableRecord
100
AcDbTextStyleTableRecord
  2
ED30
 70
     0
 40
30.0
 41
1.0
 50
0.0
 71
     0
 42
30.0
  3
ISOCP.shx
  4

  0
STYLE
  5
2F4
100
AcDbSymbolTableRecord
100
AcDbTextStyleTableRecord
  2
ED20
 70
     0
 40
20.0
 41
1.0
 50
0.0
 71
     0
 42
20.0
  3
isocp.shx
  4

  0
STYLE
  5
2F5
100
AcDbSymbolTableRecord
100
AcDbTextStyleTableRecord
  2
ED40
 70
     0
 40
40.0
 41
1.0
 50
0.0
 71
     0
 42
20.0
  3
isocp.shx
  4

  0
STYLE
  5
2F6
100
AcDbSymbolTableRecord
100
AcDbTextStyleTableRecord
  2
ED10
 70
     0
 40
10.0
 41
1.0
 50
0.0
 71
     0
 42
20.0
  3
isocp.shx
  4

  0
STYLE
  5
2F7
100
AcDbSymbolTableRecord
100
AcDbTextStyleTableRecord
  2

 70
     1
 40
0.0
 41
1.0
 50
0.0
 71
     0
 42
0.2
  3
ltypeshp.shx
  4

  0
STYLE
  5
415
100
AcDbSymbolTableRecord
100
AcDbTextStyleTableRecord
  2
ED5
 70
     0
 40
10.0
 41
1.0
 50
0.0
 71
     0
 42
15.0
  3
ISOCP.shx
  4

  0
STYLE
  5
925
100
AcDbSymbolTableRecord
100
AcDbTextStyleTableRecord
  2
ROMANS
 70
     0
 40
15.0
 41
0.8
 50
0.0
 71
     0
 42
15.0
  3
romans.shx
  4

  0
ENDTAB
  0
TABLE
  2
VIEW
  5
10
100
AcDbSymbolTable
 70
     0
  0
ENDTAB
  0
TABLE
  2
UCS
  5
11
100
AcDbSymbolTable
 70
     0
  0
ENDTAB
  0
TABLE
  2
APPID
  5
14
100
AcDbSymbolTable
 70
     5
  0
APPID
  5
15
100
AcDbSymbolTableRecord
100
AcDbRegAppTableRecord
  2
ACAD
 70
     0
  0
APPID
  5
2FC
100
AcDbSymbolTableRecord
100
AcDbRegAppTableRecord
  2
CONTENTTABDATA
 70
     0
  0
APPID
  5
2FD
100
AcDbSymbolTableRecord
100
AcDbRegAppTableRecord
  2
CONTENTCURRENTTAB
 70
     0
  0
APPID
  5
2FE
100
AcDbSymbolTableRecord
100
AcDbRegAppTableRecord
  2
CONTENTBLOCKDESCRIPTION
 70
     0
  0
APPID
  5
2FF
100
AcDbSymbolTableRecord
100
AcDbRegAppTableRecord
  2
CONTENTBLOCKICON
 70
     0
  0
ENDTAB
  0
TABLE
  2
DIMSTYLE
  5
16
100
AcDbSymbolTable
 70
     7
  0
DIMSTYLE
105
1C
100
AcDbSymbolTableRecord
100
AcDbDimStyleTableRecord
  2
STANDARD
 70
     0
  3

  4

  5

  6
_OPEN
  7
_OPEN
 40
5.0
 41
3.5
 42
0.0625
 43
0.38
 44
0.18
 45
0.0
 46
0.0
 47
0.0
 48
0.0
140
3.5
141
0.0
142
0.0
143
25.4
144
1.0
145
0.0
146
1.0
147
0.625
 71
     0
 72
     0
 73
     0
 74
     0
 75
     0
 76
     0
 77
     1
 78
     0
170
     0
171
     2
172
     0
173
     1
174
     0
175
     0
176
     0
177
     0
178
     0
270
     2
271
     0
272
     4
273
     2
274
     2
340
C
275
     0
280
     0
281
     0
282
     0
283
     1
284
     0
285
     0
286
     0
287
     0
288
     0
  0
DIMSTYLE
105
2F8
100
AcDbSymbolTableRecord
100
AcDbDimStyleTableRecord
  2
ED30
 70
     0
  3

  4

  5

  6
_OPEN
  7
_OPEN
 40
0.0
 41
25.0
 42
1.0
 43
3.75
 44
1.25
 45
0.0
 46
0.0
 47
0.0
 48
0.0
140
30.0
141
3.0
142
0.0
143
0.0394
144
1.0
145
0.0
146
1.0
147
2.0
 71
     0
 72
     0
 73
     0
 74
     0
 75
     0
 76
     0
 77
     1
 78
     8
170
     0
171
     4
172
     1
173
     1
174
     0
175
     0
176
     0
177
     0
178
     0
270
     2
271
     0
272
     1
273
     8
274
     4
340
2F3
275
     0
280
     0
281
     0
282
     0
283
     1
284
     8
285
     0
286
     0
287
     3
288
     0
  0
DIMSTYLE
105
2F9
100
AcDbSymbolTableRecord
100
AcDbDimStyleTableRecord
  2
ED40
 70
     0
  3

  4

  5

  6
_OPEN
  7
_OPEN
 40
0.0
 41
35.0
 42
1.0
 43
3.75
 44
1.25
 45
0.0
 46
0.0
 47
0.0
 48
0.0
140
40.0
141
3.0
142
0.0
143
0.0394
144
1.0
145
0.0
146
1.0
147
3.0
 71
     0
 72
     0
 73
     0
 74
     0
 75
     0
 76
     0
 77
     1
 78
     8
170
     0
171
     4
172
     1
173
     1
174
     0
175
     0
176
     0
177
     0
178
     0
270
     2
271
     0
272
     1
273
     8
274
     4
340
2F5
275
     0
280
     0
281
     0
282
     0
283
     1
284
     8
285
     0
286
     0
287
     3
288
     0
  0
DIMSTYLE
105
2FA
100
AcDbSymbolTableRecord
100
AcDbDimStyleTableRecord
  2
ED20
 70
     0
  3

  4

  5

  6
_OPEN
  7
_OPEN
 40
0.0
 41
20.0
 42
1.0
 43
3.75
 44
1.25
 45
0.0
 46
0.0
 47
0.0
 48
0.0
140
20.0
141
3.0
142
0.0
143
0.0394
144
1.0
145
0.0
146
1.0
147
1.5
 71
     0
 72
     0
 73
     0
 74
     0
 75
     0
 76
     0
 77
     1
 78
     8
170
     0
171
     4
172
     1
173
     1
174
     0
175
     0
176
     0
177
     0
178
     0
270
     2
271
     0
272
     1
273
     8
274
     4
340
2F4
275
     0
280
     0
281
     0
282
     0
283
     1
284
     8
285
     0
286
     0
287
     3
288
     0
  0
DIMSTYLE
105
2FB
100
AcDbSymbolTableRecord
100
AcDbDimStyleTableRecord
  2
ED10
 70
     0
  3

  4

  5

  6
_OPEN
  7
_OPEN
 40
0.0
 41
15.0
 42
1.0
 43
3.75
 44
1.25
 45
0.0
 46
0.0
 47
0.0
 48
0.0
140
10.0
141
3.0
142
0.0
143
0.0394
144
1.0
145
0.0
146
1.0
147
1.5
 71
     0
 72
     0
 73
     0
 74
     0
 75
     0
 76
     0
 77
     1
 78
     8
170
     0
171
     4
172
     1
173
     1
174
     0
175
     0
176
     0
177
     0
178
     0
270
     2
271
     0
272
     1
273
     8
274
     4
340
2F4
275
     0
280
     0
281
     0
282
     0
283
     1
284
     8
285
     0
286
     0
287
     3
288
     0
  0
DIMSTYLE
105
417
102
{ACAD_REACTORS
330
80F
330
829
330
84E
330
85B
330
8B6
102
}
100
AcDbSymbolTableRecord
100
AcDbDimStyleTableRecord
  2
ED5
 70
     0
  3

  4

  5

  6
_OPEN
  7
_OPEN
 40
0.0
 41
12.0
 42
1.0
 43
3.75
 44
1.25
 45
0.0
 46
0.0
 47
0.0
 48
0.0
140
10.0
141
3.0
142
0.0
143
0.0394
144
1.0
145
0.0
146
1.0
147
1.5
 71
     0
 72
     0
 73
     0
 74
     0
 75
     0
 76
     0
 77
     1
 78
     8
170
     0
171
     4
172
     1
173
     1
174
     0
175
     0
176
     0
177
     0
178
     0
270
     2
271
     0
272
     1
273
     8
274
     4
340
415
275
     0
280
     0
281
     0
282
     0
283
     1
284
     8
285
     0
286
     0
287
     3
288
     0
  0
DIMSTYLE
105
926
100
AcDbSymbolTableRecord
100
AcDbDimStyleTableRecord
  2
STANEK
 70
     0
  3

  4

  5

  6
_OBLIQUE
  7
_OBLIQUE
 40
0.0
 41
2.0
 42
0.625
 43
3.75
 44
1.0
 45
1.0
 46
0.0
 47
0.0
 48
0.0
140
2.2
141
-100.0
142
0.0
143
0.0394
144
2.2
145
2.0
146
2.2
147
0.625
 71
     0
 72
     0
 73
     0
 74
     0
 75
     0
 76
     0
 77
     1
 78
     8
170
     0
171
     4
172
     1
173
     1
174
     0
175
     0
176
     1
177
     1
178
     1
270
     2
271
     4
272
     4
273
     2
274
     4
340
925
275
     0
280
     0
281
     0
282
     0
283
     1
284
     8
285
     8
286
     8
287
     5
288
     0
  0
ENDTAB
  0
TABLE
  2
BLOCK_RECORD
  5
1
100
AcDbSymbolTable
 70
    20
  0
BLOCK_RECORD
  5
2
100
AcDbSymbolTableRecord
100
AcDbBlockTableRecord
  2
*MODEL_SPACE
  0
BLOCK_RECORD
  5
7
100
AcDbSymbolTableRecord
100
AcDbBlockTableRecord
  2
*PAPER_SPACE
  0
BLOCK_RECORD
  5
1D
100
AcDbSymbolTableRecord
100
AcDbBlockTableRecord
  2
_OPEN
  0
BLOCK_RECORD
  5
213
100
AcDbSymbolTableRecord
100
AcDbBlockTableRecord
  2
A20_350
  0
BLOCK_RECORD
  5
803
100
AcDbSymbolTableRecord
100
AcDbBlockTableRecord
  2
*D11
  0
BLOCK_RECORD
  5
81D
100
AcDbSymbolTableRecord
100
AcDbBlockTableRecord
  2
*D13
  0
BLOCK_RECORD
  5
842
100
AcDbSymbolTableRecord
100
AcDbBlockTableRecord
  2
*D15
  0
BLOCK_RECORD
  5
84F
100
AcDbSymbolTableRecord
100
AcDbBlockTableRecord
  2
*D16
  0
BLOCK_RECORD
  5
8AA
100
AcDbSymbolTableRecord
100
AcDbBlockTableRecord
  2
*D17
  0
BLOCK_RECORD
  5
921
100
AcDbSymbolTableRecord
100
AcDbBlockTableRecord
  2
_OBLIQUE
  0
BLOCK_RECORD
  5
927
100
AcDbSymbolTableRecord
100
AcDbBlockTableRecord
  2
VOMRIZKA
  0
ENDTAB
  0
ENDSEC
  0
SECTION
  2
BLOCKS
  0
BLOCK
  5
3
100
AcDbEntity
  8
0
100
AcDbBlockBegin
  2
*MODEL_SPACE
 70
     0
 10
0.0
 20
0.0
 30
0.0
  3
*MODEL_SPACE
  1

  0
ENDBLK
  5
6
100
AcDbEntity
  8
0
100
AcDbBlockEnd
  0
BLOCK
  5
8
100
AcDbEntity
 67
     1
  8
0
100
AcDbBlockBegin
  2
*PAPER_SPACE
 70
     0
 10
0.0
 20
0.0
 30
0.0
  3
*PAPER_SPACE
  1

  0
ENDBLK
  5
9
100
AcDbEntity
 67
     1
  8
0
100
AcDbBlockEnd
  0
BLOCK
  5
21
100
AcDbEntity
  8
0
100
AcDbBlockBegin
  2
_OPEN
 70
     0
 10
0.0
 20
0.0
 30
0.0
  3
_OPEN
  1

  0
LINE
  5
1E
100
AcDbEntity
  8
0
  6
BYBLOCK
 62
     0
100
AcDbLine
 10
-1.0
 20
0.166667
 30
0.0
 11
0.0
 21
0.0
 31
0.0
  0
LINE
  5
1F
100
AcDbEntity
  8
0
  6
BYBLOCK
 62
     0
100
AcDbLine
 10
0.0
 20
0.0
 30
0.0
 11
-1.0
 21
-0.166667
 31
0.0
  0
LINE
  5
20
100
AcDbEntity
  8
0
  6
BYBLOCK
 62
     0
100
AcDbLine
 10
0.0
 20
0.0
 30
0.0
 11
-1.0
 21
0.0
 31
0.0
  0
ENDBLK
  5
22
100
AcDbEntity
  8
0
100
AcDbBlockEnd
  0
BLOCK
  5
214
100
AcDbEntity
  8
0
 62
    41
100
AcDbBlockBegin
  2
A20_350
 70
     0
 10
0.0
 20
0.0
 30
0.0
  3
A20_350
  1

  0
ENDBLK
  5
215
100
AcDbEntity
  8
0
 62
    41
100
AcDbBlockEnd
  0
BLOCK
  5
87E
100
AcDbEntity
  8
0
100
AcDbBlockBegin
  2
*D11
 70
     1
 10
0.0
 20
0.0
 30
0.0
  3
*D11
  1

  0
LINE
  5
87F
100
AcDbEntity
  8
0
  6
BYBLOCK
100
AcDbLine
 10
165.503195
 20
-90.539694
 30
0.0
 11
165.503195
 21
-118.331358
 31
0.0
  0
LINE
  5
880
100
AcDbEntity
  8
0
  6
BYBLOCK
100
AcDbLine
 10
368.433195
 20
-90.539694
 30
0.0
 11
368.433195
 21
-118.331358
 31
0.0
  0
LINE
  5
881
100
AcDbEntity
  8
0
  6
BYBLOCK
100
AcDbLine
 10
177.503195
 20
-117.081358
 30
0.0
 11
356.433195
 21
-117.081358
 31
0.0
  0
INSERT
  5
882
100
AcDbEntity
  8
0
  6
BYBLOCK
100
AcDbBlockReference
  2
_OPEN
 10
165.503195
 20
-117.081358
 30
0.0
 41
12.0
 42
12.0
 43
12.0
 50
180.0
  0
INSERT
  5
883
100
AcDbEntity
  8
0
  6
BYBLOCK
100
AcDbBlockReference
  2
_OPEN
 10
368.433195
 20
-117.081358
 30
0.0
 41
12.0
 42
12.0
 43
12.0
  0
MTEXT
  5
884
100
AcDbEntity
  8
0
  6
BYBLOCK
100
AcDbMText
 10
266.968195
 20
-110.580373
 30
0.0
 40
10.0
 41
0.0
 71
     5
 72
     1
  1
\A1;203
  7
ED5
  0
POINT
  5
885
100
AcDbEntity
  8
DEFPOINTS
  6
BYBLOCK
 62
     0
100
AcDbPoint
 10
165.503195
 20
-89.539694
 30
0.0
  0
POINT
  5
886
100
AcDbEntity
  8
DEFPOINTS
  6
BYBLOCK
 62
     0
100
AcDbPoint
 10
368.433195
 20
-89.539694
 30
0.0
  0
POINT
  5
887
100
AcDbEntity
  8
DEFPOINTS
  6
BYBLOCK
 62
     0
100
AcDbPoint
 10
368.433195
 20
-117.081358
 30
0.0
  0
ENDBLK
  5
888
100
AcDbEntity
  8
0
100
AcDbBlockEnd
  0
BLOCK
  5
873
100
AcDbEntity
  8
0
100
AcDbBlockBegin
  2
*D13
 70
     1
 10
0.0
 20
0.0
 30
0.0
  3
*D13
  1

  0
LINE
  5
874
100
AcDbEntity
  8
0
  6
BYBLOCK
100
AcDbLine
 10
369.433195
 20
113.390306
 30
0.0
 11
395.660069
 21
113.390306
 31
0.0
  0
LINE
  5
875
100
AcDbEntity
  8
0
  6
BYBLOCK
100
AcDbLine
 10
369.433195
 20
-89.539694
 30
0.0
 11
395.660069
 21
-89.539694
 31
0.0
  0
LINE
  5
876
100
AcDbEntity
  8
0
  6
BYBLOCK
100
AcDbLine
 10
394.410069
 20
101.390306
 30
0.0
 11
394.410069
 21
-77.539694
 31
0.0
  0
INSERT
  5
877
100
AcDbEntity
  8
0
  6
BYBLOCK
100
AcDbBlockReference
  2
_OPEN
 10
394.410069
 20
113.390306
 30
0.0
 41
12.0
 42
12.0
 43
12.0
 50
90.0
  0
INSERT
  5
878
100
AcDbEntity
  8
0
  6
BYBLOCK
100
AcDbBlockReference
  2
_OPEN
 10
394.410069
 20
-89.539694
 30
0.0
 41
12.0
 42
12.0
 43
12.0
 50
270.0
  0
MTEXT
  5
879
100
AcDbEntity
  8
0
  6
BYBLOCK
100
AcDbMText
 10
387.909085
 20
11.925306
 30
0.0
 40
10.0
 41
0.0
 71
     5
 72
     1
  1
\A1;203
  7
ED5
 11
0.0
 21
1.0
 31
0.0
  0
POINT
  5
87A
100
AcDbEntity
  8
DEFPOINTS
  6
BYBLOCK
 62
     0
100
AcDbPoint
 10
368.433195
 20
113.390306
 30
0.0
  0
POINT
  5
87B
100
AcDbEntity
  8
DEFPOINTS
  6
BYBLOCK
 62
     0
100
AcDbPoint
 10
368.433195
 20
-89.539694
 30
0.0
  0
POINT
  5
87C
100
AcDbEntity
  8
DEFPOINTS
  6
BYBLOCK
 62
     0
100
AcDbPoint
 10
394.410069
 20
-89.539694
 30
0.0
  0
ENDBLK
  5
87D
100
AcDbEntity
  8
0
100
AcDbBlockEnd
  0
BLOCK
  5
8CD
100
AcDbEntity
  8
0
100
AcDbBlockBegin
  2
*D15
 70
     1
 10
0.0
 20
0.0
 30
0.0
  3
*D15
  1

  0
LINE
  5
8CE
100
AcDbEntity
  8
0
  6
BYBLOCK
100
AcDbLine
 10
-0.745723
 20
108.815306
 30
0.0
 11
-0.745723
 21
152.951184
 31
0.0
  0
LINE
  5
8CF
100
AcDbEntity
  8
0
  6
BYBLOCK
100
AcDbLine
 10
94.191639
 20
88.037806
 30
0.0
 11
94.191639
 21
152.951184
 31
0.0
  0
LINE
  5
8D0
100
AcDbEntity
  8
0
  6
BYBLOCK
100
AcDbLine
 10
11.254277
 20
151.701184
 30
0.0
 11
82.191639
 21
151.701184
 31
0.0
  0
INSERT
  5
8D1
100
AcDbEntity
  8
0
  6
BYBLOCK
100
AcDbBlockReference
  2
_OPEN
 10
-0.745723
 20
151.701184
 30
0.0
 41
12.0
 42
12.0
 43
12.0
 50
180.0
  0
INSERT
  5
8D2
100
AcDbEntity
  8
0
  6
BYBLOCK
100
AcDbBlockReference
  2
_OPEN
 10
94.191639
 20
151.701184
 30
0.0
 41
12.0
 42
12.0
 43
12.0
  0
MTEXT
  5
8D3
100
AcDbEntity
  8
0
  6
BYBLOCK
100
AcDbMText
 10
46.722958
 20
158.201184
 30
0.0
 40
10.0
 41
0.0
 71
     5
 72
     1
  1
\A1;95
  7
ED5
  0
POINT
  5
8D4
100
AcDbEntity
  8
DEFPOINTS
  6
BYBLOCK
 62
     0
100
AcDbPoint
 10
-0.745723
 20
107.815306
 30
0.0
  0
POINT
  5
8D5
100
AcDbEntity
  8
DEFPOINTS
  6
BYBLOCK
 62
     0
100
AcDbPoint
 10
94.191639
 20
87.037806
 30
0.0
  0
POINT
  5
8D6
100
AcDbEntity
  8
DEFPOINTS
  6
BYBLOCK
 62
     0
100
AcDbPoint
 10
94.191639
 20
151.701184
 30
0.0
  0
ENDBLK
  5
8D7
100
AcDbEntity
  8
0
100
AcDbBlockEnd
  0
BLOCK
  5
8D8
100
AcDbEntity
  8
0
100
AcDbBlockBegin
  2
*D16
 70
     1
 10
0.0
 20
0.0
 30
0.0
  3
*D16
  1

  0
LINE
  5
8D9
100
AcDbEntity
  8
0
  6
BYBLOCK
100
AcDbLine
 10
40.934277
 20
114.390306
 30
0.0
 11
40.934277
 21
129.627079
 31
0.0
  0
LINE
  5
8DA
100
AcDbEntity
  8
0
  6
BYBLOCK
100
AcDbLine
 10
94.191639
 20
89.152806
 30
0.0
 11
94.191639
 21
129.627079
 31
0.0
  0
LINE
  5
8DB
100
AcDbEntity
  8
0
  6
BYBLOCK
100
AcDbLine
 10
52.934277
 20
128.377079
 30
0.0
 11
82.191639
 21
128.377079
 31
0.0
  0
INSERT
  5
8DC
100
AcDbEntity
  8
0
  6
BYBLOCK
100
AcDbBlockReference
  2
_OPEN
 10
40.934277
 20
128.377079
 30
0.0
 41
12.0
 42
12.0
 43
12.0
 50
180.0
  0
INSERT
  5
8DD
100
AcDbEntity
  8
0
  6
BYBLOCK
100
AcDbBlockReference
  2
_OPEN
 10
94.191639
 20
128.377079
 30
0.0
 41
12.0
 42
12.0
 43
12.0
  0
MTEXT
  5
8DE
100
AcDbEntity
  8
0
  6
BYBLOCK
100
AcDbMText
 10
67.562958
 20
134.877079
 30
0.0
 40
10.0
 41
0.0
 71
     5
 72
     1
  1
\A1;53
  7
ED5
  0
POINT
  5
8DF
100
AcDbEntity
  8
DEFPOINTS
  6
BYBLOCK
 62
     0
100
AcDbPoint
 10
40.934277
 20
113.390306
 30
0.0
  0
POINT
  5
8E0
100
AcDbEntity
  8
DEFPOINTS
  6
BYBLOCK
 62
     0
100
AcDbPoint
 10
94.191639
 20
88.152806
 30
0.0
  0
POINT
  5
8E1
100
AcDbEntity
  8
DEFPOINTS
  6
BYBLOCK
 62
     0
100
AcDbPoint
 10
94.191639
 20
128.377079
 30
0.0
  0
ENDBLK
  5
8E2
100
AcDbEntity
  8
0
100
AcDbBlockEnd
  0
BLOCK
  5
913
100
AcDbEntity
  8
0
100
AcDbBlockBegin
  2
*D17
 70
     1
 10
0.0
 20
0.0
 30
0.0
  3
*D17
  1

  0
LINE
  5
914
100
AcDbEntity
  8
0
  6
BYBLOCK
100
AcDbLine
 10
95.191639
 20
87.037806
 30
0.0
 11
123.850818
 21
87.037806
 31
0.0
  0
LINE
  5
915
100
AcDbEntity
  8
0
  6
BYBLOCK
100
AcDbLine
 10
95.191639
 20
-63.187194
 30
0.0
 11
123.850818
 21
-63.187194
 31
0.0
  0
LINE
  5
916
100
AcDbEntity
  8
0
  6
BYBLOCK
100
AcDbLine
 10
122.600818
 20
75.037806
 30
0.0
 11
122.600818
 21
-51.187194
 31
0.0
  0
INSERT
  5
917
100
AcDbEntity
  8
0
  6
BYBLOCK
100
AcDbBlockReference
  2
_OPEN
 10
122.600818
 20
87.037806
 30
0.0
 41
12.0
 42
12.0
 43
12.0
 50
90.0
  0
INSERT
  5
918
100
AcDbEntity
  8
0
  6
BYBLOCK
100
AcDbBlockReference
  2
_OPEN
 10
122.600818
 20
-63.187194
 30
0.0
 41
12.0
 42
12.0
 43
12.0
 50
270.0
  0
MTEXT
  5
919
100
AcDbEntity
  8
0
  6
BYBLOCK
100
AcDbMText
 10
116.100818
 20
11.925306
 30
0.0
 40
10.0
 41
0.0
 71
     5
 72
     1
  1
\A1;\U+2205150
  7
ED5
 11
0.0
 21
1.0
 31
0.0
  0
POINT
  5
91A
100
AcDbEntity
  8
DEFPOINTS
  6
BYBLOCK
 62
     0
100
AcDbPoint
 10
94.191639
 20
87.037806
 30
0.0
  0
POINT
  5
91B
100
AcDbEntity
  8
DEFPOINTS
  6
BYBLOCK
 62
     0
100
AcDbPoint
 10
94.191639
 20
-63.187194
 30
0.0
  0
POINT
  5
91C
100
AcDbEntity
  8
DEFPOINTS
  6
BYBLOCK
 62
     0
100
AcDbPoint
 10
122.600818
 20
-63.187194
 30
0.0
  0
ENDBLK
  5
91D
100
AcDbEntity
  8
0
100
AcDbBlockEnd
  0
BLOCK
  5
923
100
AcDbEntity
  8
0
100
AcDbBlockBegin
  2
_OBLIQUE
 70
     0
 10
0.0
 20
0.0
 30
0.0
  3
_OBLIQUE
  1

  0
LINE
  5
922
100
AcDbEntity
  8
0
  6
BYBLOCK
 62
     0
100
AcDbLine
 10
-0.5
 20
-0.5
 30
0.0
 11
0.5
 21
0.5
 31
0.0
  0
ENDBLK
  5
924
100
AcDbEntity
  8
0
100
AcDbBlockEnd
  0
BLOCK
  5
93F
100
AcDbEntity
  8
0
 62
    90
100
AcDbBlockBegin
  2
VOMRIZKA
 70
     0
 10
0.0
 20
0.0
 30
0.0
  3
VOMRIZKA
  1

  0
LINE
  5
928
100
AcDbEntity
  8
0
  6
CONTINUOUS
100
AcDbLine
 10
0.5
 20
0.5
 30
0.0
 11
0.5
 21
-0.5
 31
0.0
  0
LINE
  5
929
100
AcDbEntity
  8
0
  6
CONTINUOUS
100
AcDbLine
 10
0.4
 20
-0.4
 30
0.0
 11
0.4
 21
0.4
 31
0.0
  0
LINE
  5
92A
100
AcDbEntity
  8
0
  6
CONTINUOUS
100
AcDbLine
 10
-0.5
 20
-0.5
 30
0.0
 11
-0.5
 21
0.5
 31
0.0
  0
LINE
  5
92B
100
AcDbEntity
  8
0
  6
CONTINUOUS
100
AcDbLine
 10
-0.4
 20
0.4
 30
0.0
 11
-0.4
 21
-0.4
 31
0.0
  0
LINE
  5
92C
100
AcDbEntity
  8
0
  6
CONTINUOUS
100
AcDbLine
 10
0.5
 20
-0.5
 30
0.0
 11
-0.5
 21
-0.5
 31
0.0
  0
LINE
  5
92D
100
AcDbEntity
  8
0
  6
CONTINUOUS
100
AcDbLine
 10
-0.4
 20
0.0
 30
0.0
 11
0.4
 21
0.0
 31
0.0
  0
LINE
  5
92E
100
AcDbEntity
  8
0
  6
CONTINUOUS
100
AcDbLine
 10
-0.4
 20
-0.1
 30
0.0
 11
0.4
 21
-0.1
 31
0.0
  0
LINE
  5
92F
100
AcDbEntity
  8
0
  6
CONTINUOUS
100
AcDbLine
 10
-0.4
 20
-0.09
 30
0.0
 11
0.4
 21
-0.09
 31
0.0
  0
LINE
  5
930
100
AcDbEntity
  8
0
  6
CONTINUOUS
100
AcDbLine
 10
-0.4
 20
-0.2
 30
0.0
 11
0.4
 21
-0.2
 31
0.0
  0
LINE
  5
931
100
AcDbEntity
  8
0
  6
CONTINUOUS
100
AcDbLine
 10
-0.4
 20
-0.19
 30
0.0
 11
0.4
 21
-0.19
 31
0.0
  0
LINE
  5
932
100
AcDbEntity
  8
0
  6
CONTINUOUS
100
AcDbLine
 10
-0.4
 20
-0.29
 30
0.0
 11
0.4
 21
-0.29
 31
0.0
  0
LINE
  5
933
100
AcDbEntity
  8
0
  6
CONTINUOUS
100
AcDbLine
 10
-0.4
 20
-0.3
 30
0.0
 11
0.4
 21
-0.3
 31
0.0
  0
LINE
  5
934
100
AcDbEntity
  8
0
  6
CONTINUOUS
100
AcDbLine
 10
-0.4
 20
-0.4
 30
0.0
 11
0.4
 21
-0.4
 31
0.0
  0
POINT
  5
935
100
AcDbEntity
  8
0
  6
CONTINUOUS
100
AcDbPoint
 10
0.0
 20
0.0
 30
0.0
  0
LINE
  5
936
100
AcDbEntity
  8
0
  6
CONTINUOUS
100
AcDbLine
 10
-0.5
 20
0.5
 30
0.0
 11
0.5
 21
0.5
 31
0.0
  0
LINE
  5
937
100
AcDbEntity
  8
0
  6
CONTINUOUS
100
AcDbLine
 10
-0.4
 20
0.3
 30
0.0
 11
0.4
 21
0.3
 31
0.0
  0
LINE
  5
938
100
AcDbEntity
  8
0
  6
CONTINUOUS
100
AcDbLine
 10
-0.4
 20
0.31
 30
0.0
 11
0.4
 21
0.31
 31
0.0
  0
LINE
  5
939
100
AcDbEntity
  8
0
  6
CONTINUOUS
100
AcDbLine
 10
-0.4
 20
0.2
 30
0.0
 11
0.4
 21
0.2
 31
0.0
  0
LINE
  5
93A
100
AcDbEntity
  8
0
  6
CONTINUOUS
100
AcDbLine
 10
-0.4
 20
0.21
 30
0.0
 11
0.4
 21
0.21
 31
0.0
  0
LINE
  5
93B
100
AcDbEntity
  8
0
  6
CONTINUOUS
100
AcDbLine
 10
-0.4
 20
0.1
 30
0.0
 11
0.4
 21
0.1
 31
0.0
  0
LINE
  5
93C
100
AcDbEntity
  8
0
  6
CONTINUOUS
100
AcDbLine
 10
-0.4
 20
0.11
 30
0.0
 11
0.4
 21
0.11
 31
0.0
  0
LINE
  5
93D
100
AcDbEntity
  8
0
  6
CONTINUOUS
100
AcDbLine
 10
-0.4
 20
0.01
 30
0.0
 11
0.4
 21
0.01
 31
0.0
  0
LINE
  5
93E
100
AcDbEntity
  8
0
  6
CONTINUOUS
100
AcDbLine
 10
0.4
 20
0.4
 30
0.0
 11
-0.4
 21
0.4
 31
0.0
  0
ENDBLK
  5
940
100
AcDbEntity
  8
0
 62
    90
100
AcDbBlockEnd
  0
ENDSEC
  0
SECTION
  2
ENTITIES
  0
LINE
  5
197
100
AcDbEntity
  8
V0-VYPLNE
  6
DASHDOT
 62
    63
100
AcDbLine
 10
-27.810045
 20
11.925306
 30
0.0
 11
109.153322
 21
11.925306
 31
0.0
  0
LINE
  5
1DD
100
AcDbEntity
  8
V0-VYPLNE
  6
DASHDOT
 62
    63
100
AcDbLine
 10
162.098818
 20
11.925306
 30
0.0
 11
371.837571
 21
11.925306
 31
0.0
  0
MTEXT
  5
506
100
AcDbEntity
  8
V0-ZBYTEK
 62
    51
100
AcDbMText
 10
265.718422
 20
-224.720738
 30
0.0
 40
15.121407
 41
428.35965
 71
     5
 72
     5
  1
MALY AXIALNI \PVENTILATOR
  7
ED10
  0
MTEXT
  5
508
100
AcDbEntity
  8
V0-NAZVY
100
AcDbMText
 10
266.792775
 20
-175.363379
 30
0.0
 40
27.002513
 41
222.11246
 71
     5
 72
     5
  1
XF 150  
  7
ED10
  0
POINT
  5
59B
100
AcDbEntity
  8
V0-VYPLNE
  6
CONTINUOUS
 62
    52
100
AcDbPoint
 10
40.934277
 20
11.925306
 30
0.0
  0
LINE
  5
7A6
100
AcDbEntity
  8
V0-OBRYS
  6
CONTINUOUS
 62
    90
100
AcDbLine
 10
165.503195
 20
-89.539694
 30
0.0
 11
368.433195
 21
-89.539694
 31
0.0
  0
LINE
  5
7A7
100
AcDbEntity
  8
V0-OBRYS
  6
CONTINUOUS
 62
    90
100
AcDbLine
 10
368.433195
 20
-89.539694
 30
0.0
 11
368.433195
 21
113.390306
 31
0.0
  0
LINE
  5
7A8
100
AcDbEntity
  8
V0-OBRYS
  6
CONTINUOUS
 62
    90
100
AcDbLine
 10
368.433195
 20
113.390306
 30
0.0
 11
165.503195
 21
113.390306
 31
0.0
  0
LINE
  5
7B7
100
AcDbEntity
  8
V0-OBRYS
  6
CONTINUOUS
 62
    90
100
AcDbLine
 10
165.503195
 20
113.390306
 30
0.0
 11
165.503195
 21
-89.539694
 31
0.0
  0
LINE
  5
7B9
100
AcDbEntity
  8
V0-OBRYS
  6
CONTINUOUS
 62
    90
100
AcDbLine
 10
4.829277
 20
-89.539694
 30
0.0
 11
15.979277
 21
-89.539694
 31
0.0
  0
LINE
  5
7BA
100
AcDbEntity
  8
V0-OBRYS
  6
CONTINUOUS
 62
    90
100
AcDbLine
 10
15.979277
 20
-89.539694
 30
0.0
 11
15.979277
 21
113.390306
 31
0.0
  0
LINE
  5
7BB
100
AcDbEntity
  8
V0-OBRYS
  6
CONTINUOUS
 62
    90
100
AcDbLine
 10
15.979277
 20
113.390306
 30
0.0
 11
4.829277
 21
113.390306
 31
0.0
  0
LINE
  5
7BC
100
AcDbEntity
  8
V0-OBRYS
  6
CONTINUOUS
 62
    90
100
AcDbLine
 10
-0.745723
 20
107.815306
 30
0.0
 11
-0.745723
 21
-83.964694
 31
0.0
  0
LINE
  5
7BD
100
AcDbEntity
  8
V0-OBRYS
  6
CONTINUOUS
 62
    90
100
AcDbLine
 10
15.979277
 20
-89.539694
 30
0.0
 11
40.934277
 21
-89.539694
 31
0.0
  0
LINE
  5
7BE
100
AcDbEntity
  8
V0-OBRYS
  6
CONTINUOUS
 62
    90
100
AcDbLine
 10
40.934277
 20
-89.539694
 30
0.0
 11
40.934277
 21
113.390306
 31
0.0
  0
LINE
  5
7BF
100
AcDbEntity
  8
V0-OBRYS
  6
CONTINUOUS
 62
    90
100
AcDbLine
 10
40.934277
 20
113.390306
 30
0.0
 11
15.979277
 21
113.390306
 31
0.0
  0
ARC
  5
7C0
100
AcDbEntity
  8
V0-OBRYS
  6
CONTINUOUS
 62
    90
100
AcDbCircle
 10
4.829277
 20
107.815306
 30
0.0
 40
5.575
100
AcDbArc
 50
90.0
 51
180.0
  0
ARC
  5
7C1
100
AcDbEntity
  8
V0-OBRYS
  6
CONTINUOUS
 62
    90
100
AcDbCircle
 10
4.829277
 20
-83.964694
 30
0.0
 40
5.575
100
AcDbArc
 50
180.0
 51
270.0
  0
LINE
  5
7C2
100
AcDbEntity
  8
V0-OBRYS
  6
CONTINUOUS
 62
    90
100
AcDbLine
 10
40.671639
 20
87.037806
 30
0.0
 11
94.191639
 21
87.037806
 31
0.0
  0
LINE
  5
7C3
100
AcDbEntity
  8
V0-OBRYS
  6
CONTINUOUS
 62
    90
100
AcDbLine
 10
94.191639
 20
87.037806
 30
0.0
 11
94.191639
 21
11.925306
 31
0.0
  0
LINE
  5
7C4
100
AcDbEntity
  8
V0-OBRYS
  6
CONTINUOUS
 62
    90
100
AcDbLine
 10
40.671639
 20
-63.187194
 30
0.0
 11
94.191639
 21
-63.187194
 31
0.0
  0
LINE
  5
7C5
100
AcDbEntity
  8
V0-OBRYS
  6
CONTINUOUS
 62
    90
100
AcDbLine
 10
94.191639
 20
-63.187194
 30
0.0
 11
94.191639
 21
11.925306
 31
0.0
  0
DIMENSION
  5
80F
100
AcDbEntity
  8
V0-KOTY
  6
CONTINUOUS
 62
    90
100
AcDbDimension
  2
*D11
 10
368.433195
 20
-117.081358
 30
0.0
 11
266.968195
 21
-110.580373
 31
0.0
 70
    32
  3
ED5
100
AcDbAlignedDimension
 13
165.503195
 23
-89.539694
 33
0.0
 14
368.433195
 24
-89.539694
 34
0.0
100
AcDbRotatedDimension
1001
ACAD
1000
DSTYLE
1002
{
1070
    40
1040
1.0
1070
   178
1070
   256
1070
   177
1070
   256
1070
   176
1070
   256
1002
}
  0
DIMENSION
  5
829
100
AcDbEntity
  8
V0-KOTY
  6
CONTINUOUS
 62
    90
100
AcDbDimension
  2
*D13
 10
394.410069
 20
-89.539694
 30
0.0
 11
387.909085
 21
11.925306
 31
0.0
 70
    32
  3
ED5
100
AcDbAlignedDimension
 13
368.433195
 23
113.390306
 33
0.0
 14
368.433195
 24
-89.539694
 34
0.0
 50
90.0
100
AcDbRotatedDimension
1001
ACAD
1000
DSTYLE
1002
{
1070
    40
1040
1.0
1070
   178
1070
   256
1070
   177
1070
   256
1070
   176
1070
   256
1002
}
  0
DIMENSION
  5
84E
100
AcDbEntity
  8
V0-KOTY
  6
CONTINUOUS
 62
    90
100
AcDbDimension
  2
*D15
 10
94.191639
 20
151.701184
 30
0.0
 11
46.722958
 21
158.201184
 31
0.0
 70
    32
  3
ED5
100
AcDbAlignedDimension
 13
-0.745723
 23
107.815306
 33
0.0
 14
94.191639
 24
87.037806
 34
0.0
100
AcDbRotatedDimension
1001
ACAD
1000
DSTYLE
1002
{
1070
    40
1040
1.0
1070
   178
1070
   256
1070
   177
1070
   256
1070
   176
1070
   256
1002
}
  0
DIMENSION
  5
85B
100
AcDbEntity
  8
V0-KOTY
  6
CONTINUOUS
 62
    90
100
AcDbDimension
  2
*D16
 10
94.191639
 20
128.377079
 30
0.0
 11
67.562958
 21
134.877079
 31
0.0
 70
    32
  3
ED5
100
AcDbAlignedDimension
 13
40.934277
 23
113.390306
 33
0.0
 14
94.191639
 24
88.152806
 34
0.0
100
AcDbRotatedDimension
1001
ACAD
1000
DSTYLE
1002
{
1070
    40
1040
1.0
1070
   178
1070
   256
1070
   177
1070
   256
1070
   176
1070
   256
1002
}
  0
DIMENSION
  5
8B6
100
AcDbEntity
  8
V0-KOTY
  6
CONTINUOUS
 62
    90
100
AcDbDimension
  2
*D17
 10
122.600818
 20
-63.187194
 30
0.0
 11
122.600818
 21
11.925306
 31
0.0
 70
   160
  1
%%c150
  3
ED5
100
AcDbAlignedDimension
 13
94.191639
 23
87.037806
 33
0.0
 14
94.191639
 24
-63.187194
 34
0.0
 50
90.0
100
AcDbRotatedDimension
1001
ACAD
1000
DSTYLE
1002
{
1070
    40
1040
1.0
1070
   178
1070
   256
1070
   177
1070
   256
1070
   176
1070
   256
1002
}
  0
LINE
  5
8F9
100
AcDbEntity
  8
V0-OBRYS
  6
CONTINUOUS
 62
    90
100
AcDbLine
 10
94.191639
 20
-158.445535
 30
0.0
 11
94.191639
 21
-233.558035
 31
0.0
  0
LINE
  5
8FA
100
AcDbEntity
  8
V0-OBRYS
  6
CONTINUOUS
 62
    90
100
AcDbLine
 10
15.979277
 20
-335.023035
 30
0.0
 11
15.979277
 21
-132.093035
 31
0.0
  0
LINE
  5
8FB
100
AcDbEntity
  8
V0-OBRYS
  6
CONTINUOUS
 62
    90
100
AcDbLine
 10
-0.745723
 20
-137.668035
 30
0.0
 11
-0.745723
 21
-329.448035
 31
0.0
  0
LINE
  5
8FC
100
AcDbEntity
  8
V0-OBRYS
  6
CONTINUOUS
 62
    90
100
AcDbLine
 10
40.934277
 20
-335.023035
 30
0.0
 11
40.934277
 21
-132.093035
 31
0.0
  0
LINE
  5
8FD
100
AcDbEntity
  8
V0-OBRYS
  6
CONTINUOUS
 62
    90
100
AcDbLine
 10
40.671639
 20
-308.670535
 30
0.0
 11
94.191639
 21
-308.670535
 31
0.0
  0
LINE
  5
8FE
100
AcDbEntity
  8
V0-VYPLNE
  6
DASHDOT
 62
    63
100
AcDbLine
 10
-27.810045
 20
-233.558035
 30
0.0
 11
109.153322
 21
-233.558035
 31
0.0
  0
ARC
  5
8FF
100
AcDbEntity
  8
V0-OBRYS
  6
CONTINUOUS
 62
    90
100
AcDbCircle
 10
4.829277
 20
-329.448035
 30
0.0
 40
5.575
100
AcDbArc
 50
180.0
 51
270.0
  0
LINE
  5
900
100
AcDbEntity
  8
V0-OBRYS
  6
CONTINUOUS
 62
    90
100
AcDbLine
 10
15.979277
 20
-335.023035
 30
0.0
 11
40.934277
 21
-335.023035
 31
0.0
  0
LINE
  5
901
100
AcDbEntity
  8
V0-OBRYS
  6
CONTINUOUS
 62
    90
100
AcDbLine
 10
4.829277
 20
-335.023035
 30
0.0
 11
15.979277
 21
-335.023035
 31
0.0
  0
POINT
  5
902
100
AcDbEntity
  8
V0-VYPLNE
  6
CONTINUOUS
 62
    52
100
AcDbPoint
 10
40.934277
 20
-233.558035
 30
0.0
  0
LINE
  5
903
100
AcDbEntity
  8
V0-OBRYS
  6
CONTINUOUS
 62
    90
100
AcDbLine
 10
94.191639
 20
-308.670535
 30
0.0
 11
94.191639
 21
-233.558035
 31
0.0
  0
LINE
  5
904
100
AcDbEntity
  8
V0-OBRYS
  6
CONTINUOUS
 62
    90
100
AcDbLine
 10
40.671639
 20
-158.445535
 30
0.0
 11
94.191639
 21
-158.445535
 31
0.0
  0
ARC
  5
905
100
AcDbEntity
  8
V0-OBRYS
  6
CONTINUOUS
 62
    90
100
AcDbCircle
 10
4.829277
 20
-137.668035
 30
0.0
 40
5.575
100
AcDbArc
 50
90.0
 51
180.0
  0
LINE
  5
906
100
AcDbEntity
  8
V0-OBRYS
  6
CONTINUOUS
 62
    90
100
AcDbLine
 10
40.934277
 20
-132.093035
 30
0.0
 11
15.979277
 21
-132.093035
 31
0.0
  0
LINE
  5
907
100
AcDbEntity
  8
V0-OBRYS
  6
CONTINUOUS
 62
    90
100
AcDbLine
 10
15.979277
 20
-132.093035
 30
0.0
 11
4.829277
 21
-132.093035
 31
0.0
  0
POINT
  5
920
100
AcDbEntity
  8
V0-KOTY
  6
CONTINUOUS
 62
    90
100
AcDbPoint
 10
266.968195
 20
11.425306
 30
0.0
  0
LINE
  5
944
100
AcDbEntity
  8
0
  6
CONTINUOUS
 62
    90
100
AcDbLine
 10
346.168195
 20
-69.254694
 30
0.0
 11
346.168195
 21
89.145306
 31
0.0
  0
LINE
  5
946
100
AcDbEntity
  8
0
  6
CONTINUOUS
 62
    90
100
AcDbLine
 10
187.768195
 20
89.145306
 30
0.0
 11
187.768195
 21
-69.254694
 31
0.0
  0
LINE
  5
948
100
AcDbEntity
  8
0
  6
CONTINUOUS
 62
    90
100
AcDbLine
 10
187.768195
 20
9.945306
 30
0.0
 11
346.168195
 21
9.945306
 31
0.0
  0
LINE
  5
949
100
AcDbEntity
  8
0
  6
CONTINUOUS
 62
    90
100
AcDbLine
 10
187.768195
 20
-9.854694
 30
0.0
 11
346.168195
 21
-9.854694
 31
0.0
  0
LINE
  5
94A
100
AcDbEntity
  8
0
  6
CONTINUOUS
 62
    90
100
AcDbLine
 10
187.768195
 20
-7.874694
 30
0.0
 11
346.168195
 21
-7.874694
 31
0.0
  0
LINE
  5
94B
100
AcDbEntity
  8
0
  6
CONTINUOUS
 62
    90
100
AcDbLine
 10
187.768195
 20
-29.654694
 30
0.0
 11
346.168195
 21
-29.654694
 31
0.0
  0
LINE
  5
94C
100
AcDbEntity
  8
0
  6
CONTINUOUS
 62
    90
100
AcDbLine
 10
187.768195
 20
-27.674694
 30
0.0
 11
346.168195
 21
-27.674694
 31
0.0
  0
LINE
  5
94D
100
AcDbEntity
  8
0
  6
CONTINUOUS
 62
    90
100
AcDbLine
 10
187.768195
 20
-47.474694
 30
0.0
 11
346.168195
 21
-47.474694
 31
0.0
  0
LINE
  5
94E
100
AcDbEntity
  8
0
  6
CONTINUOUS
 62
    90
100
AcDbLine
 10
187.768195
 20
-49.454694
 30
0.0
 11
346.168195
 21
-49.454694
 31
0.0
  0
LINE
  5
94F
100
AcDbEntity
  8
0
  6
CONTINUOUS
 62
    90
100
AcDbLine
 10
187.768195
 20
-69.254694
 30
0.0
 11
346.168195
 21
-69.254694
 31
0.0
  0
LINE
  5
952
100
AcDbEntity
  8
0
  6
CONTINUOUS
 62
    90
100
AcDbLine
 10
187.768195
 20
69.345306
 30
0.0
 11
346.168195
 21
69.345306
 31
0.0
  0
LINE
  5
953
100
AcDbEntity
  8
0
  6
CONTINUOUS
 62
    90
100
AcDbLine
 10
187.768195
 20
71.325306
 30
0.0
 11
346.168195
 21
71.325306
 31
0.0
  0
LINE
  5
954
100
AcDbEntity
  8
0
  6
CONTINUOUS
 62
    90
100
AcDbLine
 10
187.768195
 20
49.545306
 30
0.0
 11
346.168195
 21
49.545306
 31
0.0
  0
LINE
  5
955
100
AcDbEntity
  8
0
  6
CONTINUOUS
 62
    90
100
AcDbLine
 10
187.768195
 20
51.525306
 30
0.0
 11
346.168195
 21
51.525306
 31
0.0
  0
LINE
  5
956
100
AcDbEntity
  8
0
  6
CONTINUOUS
 62
    90
100
AcDbLine
 10
187.768195
 20
29.745306
 30
0.0
 11
346.168195
 21
29.745306
 31
0.0
  0
LINE
  5
957
100
AcDbEntity
  8
0
  6
CONTINUOUS
 62
    90
100
AcDbLine
 10
187.768195
 20
31.725306
 30
0.0
 11
346.168195
 21
31.725306
 31
0.0
  0
LINE
  5
958
100
AcDbEntity
  8
0
  6
CONTINUOUS
 62
    90
100
AcDbLine
 10
187.768195
 20
11.925306
 30
0.0
 11
346.168195
 21
11.925306
 31
0.0
  0
LINE
  5
959
100
AcDbEntity
  8
0
  6
CONTINUOUS
 62
    90
100
AcDbLine
 10
346.168195
 20
89.145306
 30
0.0
 11
187.768195
 21
89.145306
 31
0.0
  0
ENDSEC
  0
SECTION
  2
OBJECTS
  0
DICTIONARY
  5
1A
100
AcDbDictionary
  3
ACAD_GROUP
350
18
  3
ACAD_MLINESTYLE
350
19
  0
DICTIONARY
  5
18
102
{ACAD_REACTORS
330
1A
102
}
100
AcDbDictionary
  0
DICTIONARY
  5
19
102
{ACAD_REACTORS
330
1A
102
}
100
AcDbDictionary
  3
STANDARD
350
1B
  0
MLINESTYLE
  5
1B
102
{ACAD_REACTORS
330
19
102
}
100
AcDbMlineStyle
  2
STANDARD
 70
     0
  3

 62
     0
 51
90.0
 52
90.0
 71
     2
 49
0.5
 62
   256
  6
BYLAYER
 49
-0.5
 62
   256
  6
BYLAYER
  0
ENDSEC
  0
EOF
