  0
SECTION
  2
HEADER
  9
$ACADVER
  1
AC1015
  9
$ACADMAINTVER
 70
    13
  9
$DWGCODEPAGE
  3
ANSI_1252
  9
$INSBASE
 10
0.0
 20
0.0
 30
0.0
  9
$EXTMIN
 10
427.2231448893617
 20
124.9664921267376
 30
-393.5
  9
$EXTMAX
 10
2125.082717533329
 20
1321.016881975797
 30
166.5
  9
$LIMMIN
 10
0.0
 20
0.0
  9
$LIMMAX
 10
420.0
 20
297.0
  9
$ORTHOMODE
 70
     0
  9
$REGENMODE
 70
     1
  9
$FILLMODE
 70
     1
  9
$QTEXTMODE
 70
     0
  9
$MIRRTEXT
 70
     1
  9
$LTSCALE
 40
1.0
  9
$ATTMODE
 70
     1
  9
$TEXTSIZE
 40
30.0
  9
$TRACEWID
 40
1.0
  9
$TEXTSTYLE
  7
Standard
  9
$CLAYER
  8
0
  9
$CELTYPE
  6
ByLayer
  9
$CECOLOR
 62
   256
  9
$CELTSCALE
 40
1.0
  9
$DISPSILH
 70
     0
  9
$DIMSCALE
 40
10.0
  9
$DIMASZ
 40
2.0
  9
$DIMEXO
 40
0.625
  9
$DIMDLI
 40
3.75
  9
$DIMRND
 40
0.0
  9
$DIMDLE
 40
0.0
  9
$DIMEXE
 40
1.25
  9
$DIMTP
 40
0.0
  9
$DIMTM
 40
0.0
  9
$DIMTXT
 40
2.0
  9
$DIMCEN
 40
2.5
  9
$DIMTSZ
 40
0.0
  9
$DIMTOL
 70
     0
  9
$DIMLIM
 70
     0
  9
$DIMTIH
 70
     0
  9
$DIMTOH
 70
     0
  9
$DIMSE1
 70
     0
  9
$DIMSE2
 70
     0
  9
$DIMTAD
 70
     1
  9
$DIMZIN
 70
     8
  9
$DIMBLK
  1

  9
$DIMASO
 70
     1
  9
$DIMSHO
 70
     1
  9
$DIMPOST
  1

  9
$DIMAPOST
  1

  9
$DIMALT
 70
     0
  9
$DIMALTD
 70
     3
  9
$DIMALTF
 40
0.03937007874016
  9
$DIMLFAC
 40
1.0
  9
$DIMTOFL
 70
     1
  9
$DIMTVP
 40
0.0
  9
$DIMTIX
 70
     0
  9
$DIMSOXD
 70
     0
  9
$DIMSAH
 70
     0
  9
$DIMBLK1
  1

  9
$DIMBLK2
  1

  9
$DIMSTYLE
  2
ISO-25
  9
$DIMCLRD
 70
     0
  9
$DIMCLRE
 70
     0
  9
$DIMCLRT
 70
     0
  9
$DIMTFAC
 40
1.0
  9
$DIMGAP
 40
0.625
  9
$DIMJUST
 70
     0
  9
$DIMSD1
 70
     0
  9
$DIMSD2
 70
     0
  9
$DIMTOLJ
 70
     0
  9
$DIMTZIN
 70
     8
  9
$DIMALTZ
 70
     0
  9
$DIMALTTZ
 70
     0
  9
$DIMUPT
 70
     0
  9
$DIMDEC
 70
     2
  9
$DIMTDEC
 70
     2
  9
$DIMALTU
 70
     2
  9
$DIMALTTD
 70
     3
  9
$DIMTXSTY
  7
Standard
  9
$DIMAUNIT
 70
     0
  9
$DIMADEC
 70
     0
  9
$DIMALTRND
 40
0.0
  9
$DIMAZIN
 70
     0
  9
$DIMDSEP
 70
    44
  9
$DIMATFIT
 70
     3
  9
$DIMFRAC
 70
     0
  9
$DIMLDRBLK
  1

  9
$DIMLUNIT
 70
     2
  9
$DIMLWD
 70
    -2
  9
$DIMLWE
 70
    -2
  9
$DIMTMOVE
 70
     0
  9
$LUNITS
 70
     2
  9
$LUPREC
 70
     4
  9
$SKETCHINC
 40
1.0
  9
$FILLETRAD
 40
2.5
  9
$AUNITS
 70
     0
  9
$AUPREC
 70
     0
  9
$MENU
  1
.
  9
$ELEVATION
 40
0.0
  9
$PELEVATION
 40
0.0
  9
$THICKNESS
 40
0.0
  9
$LIMCHECK
 70
     0
  9
$CHAMFERA
 40
10.0
  9
$CHAMFERB
 40
10.0
  9
$CHAMFERC
 40
20.0
  9
$CHAMFERD
 40
0.0
  9
$SKPOLY
 70
     0
  9
$TDCREATE
 40
2453639.692351574
  9
$TDUCREATE
 40
2453639.650684907
  9
$TDUPDATE
 40
2453687.429582060
  9
$TDUUPDATE
 40
2453687.387915393
  9
$TDINDWG
 40
0.1142508102
  9
$TDUSRTIMER
 40
0.1142502315
  9
$USRTIMER
 70
     1
  9
$ANGBASE
 50
0.0
  9
$ANGDIR
 70
     0
  9
$PDMODE
 70
     0
  9
$PDSIZE
 40
0.0
  9
$PLINEWID
 40
0.0
  9
$SPLFRAME
 70
     0
  9
$SPLINETYPE
 70
     6
  9
$SPLINESEGS
 70
     8
  9
$HANDSEED
  5
2EA
  9
$SURFTAB1
 70
     6
  9
$SURFTAB2
 70
     6
  9
$SURFTYPE
 70
     6
  9
$SURFU
 70
     6
  9
$SURFV
 70
     6
  9
$UCSBASE
  2

  9
$UCSNAME
  2

  9
$UCSORG
 10
0.0
 20
0.0
 30
0.0
  9
$UCSXDIR
 10
1.0
 20
0.0
 30
0.0
  9
$UCSYDIR
 10
0.0
 20
1.0
 30
0.0
  9
$UCSORTHOREF
  2

  9
$UCSORTHOVIEW
 70
     1
  9
$UCSORGTOP
 10
0.0
 20
0.0
 30
0.0
  9
$UCSORGBOTTOM
 10
0.0
 20
0.0
 30
0.0
  9
$UCSORGLEFT
 10
0.0
 20
0.0
 30
0.0
  9
$UCSORGRIGHT
 10
0.0
 20
0.0
 30
0.0
  9
$UCSORGFRONT
 10
0.0
 20
0.0
 30
0.0
  9
$UCSORGBACK
 10
0.0
 20
0.0
 30
0.0
  9
$PUCSBASE
  2

  9
$PUCSNAME
  2

  9
$PUCSORG
 10
0.0
 20
0.0
 30
0.0
  9
$PUCSXDIR
 10
1.0
 20
0.0
 30
0.0
  9
$PUCSYDIR
 10
0.0
 20
1.0
 30
0.0
  9
$PUCSORTHOREF
  2

  9
$PUCSORTHOVIEW
 70
     0
  9
$PUCSORGTOP
 10
0.0
 20
0.0
 30
0.0
  9
$PUCSORGBOTTOM
 10
0.0
 20
0.0
 30
0.0
  9
$PUCSORGLEFT
 10
0.0
 20
0.0
 30
0.0
  9
$PUCSORGRIGHT
 10
0.0
 20
0.0
 30
0.0
  9
$PUCSORGFRONT
 10
0.0
 20
0.0
 30
0.0
  9
$PUCSORGBACK
 10
0.0
 20
0.0
 30
0.0
  9
$USERI1
 70
     0
  9
$USERI2
 70
     0
  9
$USERI3
 70
     0
  9
$USERI4
 70
     0
  9
$USERI5
 70
     0
  9
$USERR1
 40
0.0
  9
$USERR2
 40
0.0
  9
$USERR3
 40
0.0
  9
$USERR4
 40
0.0
  9
$USERR5
 40
0.0
  9
$WORLDVIEW
 70
     1
  9
$SHADEDGE
 70
     3
  9
$SHADEDIF
 70
    70
  9
$TILEMODE
 70
     1
  9
$MAXACTVP
 70
    64
  9
$PINSBASE
 10
0.0
 20
0.0
 30
0.0
  9
$PLIMCHECK
 70
     0
  9
$PEXTMIN
 10
1.000000000000000E+20
 20
1.000000000000000E+20
 30
1.000000000000000E+20
  9
$PEXTMAX
 10
-1.000000000000000E+20
 20
-1.000000000000000E+20
 30
-1.000000000000000E+20
  9
$PLIMMIN
 10
0.0
 20
0.0
  9
$PLIMMAX
 10
420.0
 20
297.0
  9
$UNITMODE
 70
     0
  9
$VISRETAIN
 70
     1
  9
$PLINEGEN
 70
     0
  9
$PSLTSCALE
 70
     1
  9
$TREEDEPTH
 70
  3020
  9
$CMLSTYLE
  2
Standard
  9
$CMLJUST
 70
     0
  9
$CMLSCALE
 40
20.0
  9
$PROXYGRAPHICS
 70
     1
  9
$MEASUREMENT
 70
     1
  9
$CELWEIGHT
370
    -1
  9
$ENDCAPS
280
     0
  9
$JOINSTYLE
280
     0
  9
$LWDISPLAY
290
     0
  9
$INSUNITS
 70
     4
  9
$HYPERLINKBASE
  1

  9
$STYLESHEET
  1

  9
$XEDIT
290
     1
  9
$CEPSNTYPE
380
     0
  9
$PSTYLEMODE
290
     1
  9
$FINGERPRINTGUID
  2
{9B47308E-04D6-42FB-BD32-F27AC533D1CD}
  9
$VERSIONGUID
  2
{120B457A-44BC-49EC-AD3D-E07F979344E9}
  9
$EXTNAMES
290
     1
  9
$PSVPSCALE
 40
0.0
  9
$OLESTARTUP
290
     0
  0
ENDSEC
  0
SECTION
  2
CLASSES
  0
CLASS
  1
ACDBDICTIONARYWDFLT
  2
AcDbDictionaryWithDefault
  3
AutoCAD 2000
 90
        0
280
     0
281
     0
  0
CLASS
  1
ACDBPLACEHOLDER
  2
AcDbPlaceHolder
  3
AutoCAD 2000
 90
        0
280
     0
281
     0
  0
CLASS
  1
LAYOUT
  2
AcDbLayout
  3
AutoCAD 2000
 90
        0
280
     0
281
     0
  0
CLASS
  1
DICTIONARYVAR
  2
AcDbDictionaryVar
  3
AutoCAD 2000
 90
        0
280
     0
281
     0
  0
CLASS
  1
DIMASSOC
  2
AcDbDimAssoc
  3
"AcDbDimAssoc|Product Desc:     AcDim ARX App For Dimension|Company:          Autodesk, Inc.|WEB Address:      www.autodesk.com"
 90
        0
280
     0
281
     0
  0
ENDSEC
  0
SECTION
  2
TABLES
  0
TABLE
  2
VPORT
  5
8
330
0
100
AcDbSymbolTable
 70
     4
  0
VPORT
  5
2E9
330
8
100
AcDbSymbolTableRecord
100
AcDbViewportTableRecord
  2
*Active
 70
     0
 10
0.0
 20
0.0
 11
1.0
 21
1.0
 12
-305.7813615282029
 22
-100.7114518499763
 13
0.0
 23
0.0
 14
10.0
 24
10.0
 15
10.0
 25
10.0
 16
0.0
 26
0.0
 36
1.0
 17
1233.20899463152
 27
756.1572575212717
 37
24.08934669494027
 40
878.1743866994943
 41
1.862475442043221
 42
50.0
 43
0.0
 44
0.0
 50
0.0
 51
0.0
 71
     0
 72
   100
 73
     1
 74
     3
 75
     0
 76
     0
 77
     0
 78
     0
281
     0
 65
     1
110
0.0
120
0.0
130
0.0
111
1.0
121
0.0
131
0.0
112
0.0
122
1.0
132
0.0
 79
     1
146
0.0
  0
ENDTAB
  0
TABLE
  2
LTYPE
  5
5
330
0
100
AcDbSymbolTable
 70
     3
  0
LTYPE
  5
14
330
5
100
AcDbSymbolTableRecord
100
AcDbLinetypeTableRecord
  2
ByBlock
 70
     0
  3

 72
    65
 73
     0
 40
0.0
  0
LTYPE
  5
15
330
5
100
AcDbSymbolTableRecord
100
AcDbLinetypeTableRecord
  2
ByLayer
 70
     0
  3

 72
    65
 73
     0
 40
0.0
  0
LTYPE
  5
16
330
5
100
AcDbSymbolTableRecord
100
AcDbLinetypeTableRecord
  2
Continuous
 70
     0
  3
Solid line
 72
    65
 73
     0
 40
0.0
  0
LTYPE
  5
121
330
5
100
AcDbSymbolTableRecord
100
AcDbLinetypeTableRecord
  2
ACAD_ISO02W100
 70
     0
  3
ISO èárkovaná __ __ __ __ __ __ __ __ __ __ __ 
 72
    65
 73
     2
 40
15.0
 49
12.0
 74
     0
 49
-3.0
 74
     0
  0
LTYPE
  5
122
330
5
100
AcDbSymbolTableRecord
100
AcDbLinetypeTableRecord
  2
ACAD_ISO03W100
 70
     0
  3
ISO pøerušovaná __    __    __    __    __    _
 72
    65
 73
     2
 40
30.0
 49
12.0
 74
     0
 49
-18.0
 74
     0
  0
ENDTAB
  0
TABLE
  2
LAYER
  5
2
330
0
100
AcDbSymbolTable
 70
     5
  0
LAYER
  5
10
330
2
100
AcDbSymbolTableRecord
100
AcDbLayerTableRecord
  2
0
 70
     0
 62
     7
  6
Continuous
370
    -3
390
F
  0
LAYER
  5
2B
330
2
100
AcDbSymbolTableRecord
100
AcDbLayerTableRecord
  2
koty
 70
     0
 62
   -41
  6
Continuous
370
    -3
390
F
  0
LAYER
  5
2C
330
2
100
AcDbSymbolTableRecord
100
AcDbLayerTableRecord
  2
popis
 70
     0
 62
  -210
  6
Continuous
370
    -3
390
F
  0
LAYER
  5
4E
330
2
100
AcDbSymbolTableRecord
100
AcDbLayerTableRecord
  2
Defpoints
 70
     0
 62
     7
  6
Continuous
290
     0
370
    -3
390
F
  0
LAYER
  5
C4
330
2
100
AcDbSymbolTableRecord
100
AcDbLayerTableRecord
  2
srafy
 70
     0
 62
   -90
  6
Continuous
370
    -3
390
F
  0
ENDTAB
  0
TABLE
  2
STYLE
  5
3
330
0
100
AcDbSymbolTable
 70
     2
  0
STYLE
  5
11
330
3
100
AcDbSymbolTableRecord
100
AcDbTextStyleTableRecord
  2
Standard
 70
     0
 40
0.0
 41
1.0
 50
0.0
 71
     0
 42
30.0
  3
txt
  4

  0
STYLE
  5
120
330
3
100
AcDbSymbolTableRecord
100
AcDbTextStyleTableRecord
  2

 70
     1
 40
0.0
 41
1.0
 50
0.0
 71
     0
 42
2.5
  3
ltypeshp.shx
  4

  0
ENDTAB
  0
TABLE
  2
VIEW
  5
6
330
0
100
AcDbSymbolTable
 70
     0
  0
ENDTAB
  0
TABLE
  2
UCS
  5
7
330
0
100
AcDbSymbolTable
 70
     0
  0
ENDTAB
  0
TABLE
  2
APPID
  5
9
330
0
100
AcDbSymbolTable
 70
     1
  0
APPID
  5
12
330
9
100
AcDbSymbolTableRecord
100
AcDbRegAppTableRecord
  2
ACAD
 70
     0
  0
ENDTAB
  0
TABLE
  2
DIMSTYLE
  5
A
330
0
100
AcDbSymbolTable
 70
     1
100
AcDbDimStyleTable
 71
     1
340
27
  0
DIMSTYLE
105
27
102
{ACAD_REACTORS
330
204
330
21C
330
234
330
24C
330
264
330
27C
102
}
330
A
100
AcDbSymbolTableRecord
100
AcDbDimStyleTableRecord
  2
ISO-25
 70
     0
 40
10.0
 41
2.0
 42
0.625
 43
3.75
 44
1.25
 73
     0
 74
     0
 77
     1
 78
     8
140
2.0
141
2.5
143
0.03937007874016
147
0.625
171
     3
172
     1
271
     2
272
     2
274
     3
278
    44
283
     0
284
     8
340
11
  0
ENDTAB
  0
TABLE
  2
BLOCK_RECORD
  5
1
330
0
100
AcDbSymbolTable
 70
     7
  0
BLOCK_RECORD
  5
1F
330
1
100
AcDbSymbolTableRecord
100
AcDbBlockTableRecord
  2
*Model_Space
340
22
  0
BLOCK_RECORD
  5
1B
330
1
100
AcDbSymbolTableRecord
100
AcDbBlockTableRecord
  2
*Paper_Space
340
1E
  0
BLOCK_RECORD
  5
23
330
1
100
AcDbSymbolTableRecord
100
AcDbBlockTableRecord
  2
*Paper_Space0
340
26
  0
BLOCK_RECORD
  5
205
330
1
100
AcDbSymbolTableRecord
100
AcDbBlockTableRecord
  2
*D1
340
0
  0
BLOCK_RECORD
  5
21D
330
1
100
AcDbSymbolTableRecord
100
AcDbBlockTableRecord
  2
*D2
340
0
  0
BLOCK_RECORD
  5
235
330
1
100
AcDbSymbolTableRecord
100
AcDbBlockTableRecord
  2
*D3
340
0
  0
BLOCK_RECORD
  5
24D
330
1
100
AcDbSymbolTableRecord
100
AcDbBlockTableRecord
  2
*D4
340
0
  0
BLOCK_RECORD
  5
265
330
1
100
AcDbSymbolTableRecord
100
AcDbBlockTableRecord
  2
*D5
340
0
  0
BLOCK_RECORD
  5
27D
330
1
100
AcDbSymbolTableRecord
100
AcDbBlockTableRecord
  2
*D6
340
0
  0
ENDTAB
  0
ENDSEC
  0
SECTION
  2
BLOCKS
  0
BLOCK
  5
20
330
1F
100
AcDbEntity
  8
0
100
AcDbBlockBegin
  2
*Model_Space
 70
     0
 10
0.0
 20
0.0
 30
0.0
  3
*Model_Space
  1

  0
ENDBLK
  5
21
330
1F
100
AcDbEntity
  8
0
100
AcDbBlockEnd
  0
BLOCK
  5
1C
330
1B
100
AcDbEntity
 67
     1
  8
0
100
AcDbBlockBegin
  2
*Paper_Space
 70
     0
 10
0.0
 20
0.0
 30
0.0
  3
*Paper_Space
  1

  0
ENDBLK
  5
1D
330
1B
100
AcDbEntity
 67
     1
  8
0
100
AcDbBlockEnd
  0
BLOCK
  5
24
330
23
100
AcDbEntity
  8
0
100
AcDbBlockBegin
  2
*Paper_Space0
 70
     0
 10
0.0
 20
0.0
 30
0.0
  3
*Paper_Space0
  1

  0
ENDBLK
  5
25
330
23
100
AcDbEntity
  8
0
100
AcDbBlockEnd
  0
BLOCK
  5
20F
330
205
100
AcDbEntity
  8
0
100
AcDbBlockBegin
  2
*D1
 70
     1
 10
0.0
 20
0.0
 30
0.0
  3
*D1
  1

  0
LINE
  5
2CB
330
205
100
AcDbEntity
  8
koty
 62
     0
370
    -2
100
AcDbLine
 10
535.6224866995416
 20
244.4083304669038
 30
0.0
 11
535.6224866995416
 21
124.9664921267376
 31
0.0
  0
LINE
  5
2CC
330
205
100
AcDbEntity
  8
koty
 62
     0
370
    -2
100
AcDbLine
 10
1135.622486699541
 20
244.4083304669038
 30
0.0
 11
1135.622486699541
 21
124.9664921267376
 31
0.0
  0
LINE
  5
2CD
330
205
100
AcDbEntity
  8
koty
 62
     0
370
    -2
100
AcDbLine
 10
555.6224866995417
 20
137.4664921267376
 30
0.0
 11
1115.622486699541
 21
137.4664921267376
 31
0.0
  0
SOLID
  5
2CE
330
205
100
AcDbEntity
  8
koty
 62
     0
100
AcDbTrace
 10
555.6224866995417
 20
140.7998254600709
 30
0.0
 11
555.6224866995417
 21
134.1331587934043
 31
0.0
 12
535.6224866995416
 22
137.4664921267376
 32
0.0
 13
535.6224866995416
 23
137.4664921267376
 33
0.0
  0
SOLID
  5
2CF
330
205
100
AcDbEntity
  8
koty
 62
     0
100
AcDbTrace
 10
1115.622486699541
 20
140.7998254600709
 30
0.0
 11
1115.622486699541
 21
134.1331587934043
 31
0.0
 12
1135.622486699541
 22
137.4664921267376
 32
0.0
 13
1135.622486699541
 23
137.4664921267376
 33
0.0
  0
MTEXT
  5
2D0
330
205
100
AcDbEntity
  8
koty
 62
     0
100
AcDbMText
 10
835.6224866995415
 20
153.7164921267376
 30
0.0
 40
20.0
 41
0.0
 71
     5
 72
     1
  1
600
 73
     1
 44
1.0
  0
POINT
  5
2D1
330
205
100
AcDbEntity
  8
Defpoints
 62
     0
100
AcDbPoint
 10
535.6224866995416
 20
250.6583304669038
 30
0.0
  0
POINT
  5
2D2
330
205
100
AcDbEntity
  8
Defpoints
 62
     0
100
AcDbPoint
 10
1135.622486699541
 20
250.6583304669038
 30
0.0
  0
POINT
  5
2D3
330
205
100
AcDbEntity
  8
Defpoints
 62
     0
100
AcDbPoint
 10
1135.622486699541
 20
137.4664921267376
 30
0.0
  0
ENDBLK
  5
210
330
205
100
AcDbEntity
  8
0
100
AcDbBlockEnd
  0
BLOCK
  5
227
330
21D
100
AcDbEntity
  8
0
100
AcDbBlockBegin
  2
*D2
 70
     1
 10
0.0
 20
0.0
 30
0.0
  3
*D2
  1

  0
LINE
  5
29A
330
21D
100
AcDbEntity
  8
koty
 62
     0
370
    -2
100
AcDbLine
 10
635.6224866995416
 20
803.9083304669038
 30
0.0
 11
635.6224866995416
 21
1187.287454158625
 31
0.0
  0
LINE
  5
29B
330
21D
100
AcDbEntity
  8
koty
 62
     0
370
    -2
100
AcDbLine
 10
1035.622486699541
 20
803.9083304669038
 30
0.0
 11
1035.622486699541
 21
1187.287454158625
 31
0.0
  0
LINE
  5
29C
330
21D
100
AcDbEntity
  8
koty
 62
     0
370
    -2
100
AcDbLine
 10
655.6224866995417
 20
1174.787454158625
 30
0.0
 11
1015.622486699541
 21
1174.787454158625
 31
0.0
  0
SOLID
  5
29D
330
21D
100
AcDbEntity
  8
koty
 62
     0
100
AcDbTrace
 10
655.6224866995417
 20
1178.120787491958
 30
0.0
 11
655.6224866995417
 21
1171.454120825291
 31
0.0
 12
635.6224866995416
 22
1174.787454158625
 32
0.0
 13
635.6224866995416
 23
1174.787454158625
 33
0.0
  0
SOLID
  5
29E
330
21D
100
AcDbEntity
  8
koty
 62
     0
100
AcDbTrace
 10
1015.622486699541
 20
1178.120787491958
 30
0.0
 11
1015.622486699541
 21
1171.454120825291
 31
0.0
 12
1035.622486699541
 22
1174.787454158625
 32
0.0
 13
1035.622486699541
 23
1174.787454158625
 33
0.0
  0
MTEXT
  5
29F
330
21D
100
AcDbEntity
  8
koty
 62
     0
100
AcDbMText
 10
835.6224866995415
 20
1191.037454158625
 30
0.0
 40
20.0
 41
0.0
 71
     5
 72
     1
  1
400
 73
     1
 44
1.0
  0
POINT
  5
2A0
330
21D
100
AcDbEntity
  8
Defpoints
 62
     0
100
AcDbPoint
 10
635.6224866995416
 20
797.6583304669039
 30
0.0
  0
POINT
  5
2A1
330
21D
100
AcDbEntity
  8
Defpoints
 62
     0
100
AcDbPoint
 10
1035.622486699541
 20
797.6583304669039
 30
0.0
  0
POINT
  5
2A2
330
21D
100
AcDbEntity
  8
Defpoints
 62
     0
100
AcDbPoint
 10
1035.622486699541
 20
1174.787454158625
 30
0.0
  0
ENDBLK
  5
228
330
21D
100
AcDbEntity
  8
0
100
AcDbBlockEnd
  0
BLOCK
  5
23F
330
235
100
AcDbEntity
  8
0
100
AcDbBlockBegin
  2
*D3
 70
     1
 10
0.0
 20
0.0
 30
0.0
  3
*D3
  1

  0
LINE
  5
2D4
330
235
100
AcDbEntity
  8
koty
 62
     0
370
    -2
100
AcDbLine
 10
529.3724866995416
 20
787.6583304669038
 30
0.0
 11
440.9731448893618
 21
787.6583304669038
 31
0.0
  0
LINE
  5
2D5
330
235
100
AcDbEntity
  8
koty
 62
     0
370
    -2
100
AcDbLine
 10
539.3724866995417
 20
240.6583304669038
 30
0.0
 11
440.9731448893617
 21
240.6583304669038
 31
0.0
  0
LINE
  5
2D6
330
235
100
AcDbEntity
  8
koty
 62
     0
370
    -2
100
AcDbLine
 10
453.4731448893618
 20
767.6583304669038
 30
0.0
 11
453.4731448893617
 21
260.6583304669038
 31
0.0
  0
SOLID
  5
2D7
330
235
100
AcDbEntity
  8
koty
 62
     0
100
AcDbTrace
 10
450.1398115560284
 20
767.6583304669038
 30
0.0
 11
456.8064782226951
 21
767.6583304669038
 31
0.0
 12
453.4731448893618
 22
787.6583304669038
 32
0.0
 13
453.4731448893618
 23
787.6583304669038
 33
0.0
  0
SOLID
  5
2D8
330
235
100
AcDbEntity
  8
koty
 62
     0
100
AcDbTrace
 10
450.1398115560284
 20
260.6583304669038
 30
0.0
 11
456.806478222695
 21
260.6583304669038
 31
0.0
 12
453.4731448893617
 22
240.6583304669038
 32
0.0
 13
453.4731448893617
 23
240.6583304669038
 33
0.0
  0
MTEXT
  5
2D9
330
235
100
AcDbEntity
  8
koty
 62
     0
100
AcDbMText
 10
437.2231448893617
 20
514.158330466904
 30
0.0
 40
20.0
 41
0.0
 71
     5
 72
     1
  1
547
 11
0.0000000000000001
 21
1.0
 31
0.0
 73
     1
 44
1.0
  0
POINT
  5
2DA
330
235
100
AcDbEntity
  8
Defpoints
 62
     0
100
AcDbPoint
 10
535.6224866995416
 20
787.6583304669038
 30
-113.5
  0
POINT
  5
2DB
330
235
100
AcDbEntity
  8
Defpoints
 62
     0
100
AcDbPoint
 10
545.6224866995417
 20
240.6583304669038
 30
166.5
  0
POINT
  5
2DC
330
235
100
AcDbEntity
  8
Defpoints
 62
     0
100
AcDbPoint
 10
453.4731448893617
 20
240.6583304669038
 30
0.0
  0
ENDBLK
  5
240
330
235
100
AcDbEntity
  8
0
100
AcDbBlockEnd
  0
BLOCK
  5
257
330
24D
100
AcDbEntity
  8
0
100
AcDbBlockBegin
  2
*D4
 70
     1
 10
0.0
 20
0.0
 30
0.0
  3
*D4
  1

  0
LINE
  5
2A3
330
24D
100
AcDbEntity
  8
koty
 62
     0
370
    -2
100
AcDbLine
 10
1447.906819961732
 20
234.4083304669036
 30
0.0
 11
1447.906819961732
 21
124.9664921267376
 31
0.0
  0
LINE
  5
2A4
330
24D
100
AcDbEntity
  8
koty
 62
     0
370
    -2
100
AcDbLine
 10
2007.906819961732
 20
234.4083304669037
 30
0.0
 11
2007.906819961732
 21
124.9664921267376
 31
0.0
  0
LINE
  5
2A5
330
24D
100
AcDbEntity
  8
koty
 62
     0
370
    -2
100
AcDbLine
 10
1467.906819961732
 20
137.4664921267376
 30
0.0
 11
1987.906819961732
 21
137.4664921267376
 31
0.0
  0
SOLID
  5
2A6
330
24D
100
AcDbEntity
  8
koty
 62
     0
100
AcDbTrace
 10
1467.906819961732
 20
140.7998254600709
 30
0.0
 11
1467.906819961732
 21
134.1331587934043
 31
0.0
 12
1447.906819961732
 22
137.4664921267376
 32
0.0
 13
1447.906819961732
 23
137.4664921267376
 33
0.0
  0
SOLID
  5
2A7
330
24D
100
AcDbEntity
  8
koty
 62
     0
100
AcDbTrace
 10
1987.906819961732
 20
140.7998254600709
 30
0.0
 11
1987.906819961732
 21
134.1331587934043
 31
0.0
 12
2007.906819961732
 22
137.4664921267376
 32
0.0
 13
2007.906819961732
 23
137.4664921267376
 33
0.0
  0
MTEXT
  5
2A8
330
24D
100
AcDbEntity
  8
koty
 62
     0
100
AcDbMText
 10
1727.906819961732
 20
153.7164921267376
 30
0.0
 40
20.0
 41
0.0
 71
     5
 72
     1
  1
560
 73
     1
 44
1.0
  0
POINT
  5
2A9
330
24D
100
AcDbEntity
  8
Defpoints
 62
     0
100
AcDbPoint
 10
1447.906819961732
 20
240.6583304669036
 30
0.0
  0
POINT
  5
2AA
330
24D
100
AcDbEntity
  8
Defpoints
 62
     0
100
AcDbPoint
 10
2007.906819961732
 20
240.6583304669037
 30
0.0
  0
POINT
  5
2AB
330
24D
100
AcDbEntity
  8
Defpoints
 62
     0
100
AcDbPoint
 10
2007.906819961732
 20
137.4664921267376
 30
0.0
  0
ENDBLK
  5
258
330
24D
100
AcDbEntity
  8
0
100
AcDbBlockEnd
  0
BLOCK
  5
26F
330
265
100
AcDbEntity
  8
0
100
AcDbBlockBegin
  2
*D5
 70
     1
 10
0.0
 20
0.0
 30
0.0
  3
*D5
  1

  0
LINE
  5
2B5
330
265
100
AcDbEntity
  8
koty
 62
     0
370
    -2
100
AcDbLine
 10
2014.156819961732
 20
240.6583304669037
 30
0.0
 11
2125.082717533329
 21
240.6583304669037
 31
0.0
  0
LINE
  5
2B6
330
265
100
AcDbEntity
  8
koty
 62
     0
370
    -2
100
AcDbLine
 10
1712.732058883239
 20
1081.658330466903
 30
0.0
 11
2125.082717533329
 21
1081.658330466903
 31
0.0
  0
LINE
  5
2B7
330
265
100
AcDbEntity
  8
koty
 62
     0
370
    -2
100
AcDbLine
 10
2112.582717533328
 20
260.6583304669038
 30
0.0
 11
2112.582717533329
 21
1061.658330466903
 31
0.0
  0
SOLID
  5
2B8
330
265
100
AcDbEntity
  8
koty
 62
     0
100
AcDbTrace
 10
2109.249384199995
 20
260.6583304669038
 30
0.0
 11
2115.916050866662
 21
260.6583304669038
 31
0.0
 12
2112.582717533328
 22
240.6583304669037
 32
0.0
 13
2112.582717533328
 23
240.6583304669037
 33
0.0
  0
SOLID
  5
2B9
330
265
100
AcDbEntity
  8
koty
 62
     0
100
AcDbTrace
 10
2109.249384199995
 20
1061.658330466903
 30
0.0
 11
2115.916050866662
 21
1061.658330466903
 31
0.0
 12
2112.582717533329
 22
1081.658330466903
 32
0.0
 13
2112.582717533329
 23
1081.658330466903
 33
0.0
  0
MTEXT
  5
2BA
330
265
100
AcDbEntity
  8
koty
 62
     0
100
AcDbMText
 10
2096.332717533328
 20
661.1583304669039
 30
0.0
 40
20.0
 41
0.0
 71
     5
 72
     1
  1
841
 11
0.0000000000000001
 21
1.0
 31
0.0
 73
     1
 44
1.0
  0
POINT
  5
2BB
330
265
100
AcDbEntity
  8
Defpoints
 62
     0
100
AcDbPoint
 10
2007.906819961732
 20
240.6583304669037
 30
0.0
  0
POINT
  5
2BC
330
265
100
AcDbEntity
  8
Defpoints
 62
     0
100
AcDbPoint
 10
1706.482058883239
 20
1081.658330466903
 30
0.0
  0
POINT
  5
2BD
330
265
100
AcDbEntity
  8
Defpoints
 62
     0
100
AcDbPoint
 10
2112.582717533329
 20
1081.658330466903
 30
0.0
  0
ENDBLK
  5
270
330
265
100
AcDbEntity
  8
0
100
AcDbBlockEnd
  0
BLOCK
  5
287
330
27D
100
AcDbEntity
  8
0
100
AcDbBlockBegin
  2
*D6
 70
     1
 10
0.0
 20
0.0
 30
0.0
  3
*D6
  1

  0
LINE
  5
2AC
330
27D
100
AcDbEntity
  8
koty
 62
     0
370
    -2
100
AcDbLine
 10
1841.406819961732
 20
1083.908330466903
 30
0.0
 11
1841.406819961732
 21
1187.287454158625
 31
0.0
  0
LINE
  5
2AD
330
27D
100
AcDbEntity
  8
koty
 62
     0
370
    -2
100
AcDbLine
 10
1614.406819961732
 20
1008.908330466904
 30
0.0
 11
1614.406819961732
 21
1187.287454158625
 31
0.0
  0
LINE
  5
2AE
330
27D
100
AcDbEntity
  8
koty
 62
     0
370
    -2
100
AcDbLine
 10
1821.406819961732
 20
1174.787454158625
 30
0.0
 11
1634.406819961732
 21
1174.787454158625
 31
0.0
  0
SOLID
  5
2AF
330
27D
100
AcDbEntity
  8
koty
 62
     0
100
AcDbTrace
 10
1821.406819961732
 20
1178.120787491958
 30
0.0
 11
1821.406819961732
 21
1171.454120825291
 31
0.0
 12
1841.406819961732
 22
1174.787454158625
 32
0.0
 13
1841.406819961732
 23
1174.787454158625
 33
0.0
  0
SOLID
  5
2B0
330
27D
100
AcDbEntity
  8
koty
 62
     0
100
AcDbTrace
 10
1634.406819961732
 20
1178.120787491958
 30
0.0
 11
1634.406819961732
 21
1171.454120825291
 31
0.0
 12
1614.406819961732
 22
1174.787454158625
 32
0.0
 13
1614.406819961732
 23
1174.787454158625
 33
0.0
  0
MTEXT
  5
2B1
330
27D
100
AcDbEntity
  8
koty
 62
     0
100
AcDbMText
 10
1727.906819961732
 20
1191.037454158625
 30
0.0
 40
20.0
 41
0.0
 71
     5
 72
     1
  1
227
 73
     1
 44
1.0
  0
POINT
  5
2B2
330
27D
100
AcDbEntity
  8
Defpoints
 62
     0
100
AcDbPoint
 10
1841.406819961732
 20
1077.658330466903
 30
0.0
  0
POINT
  5
2B3
330
27D
100
AcDbEntity
  8
Defpoints
 62
     0
100
AcDbPoint
 10
1614.406819961732
 20
1002.658330466904
 30
0.0
  0
POINT
  5
2B4
330
27D
100
AcDbEntity
  8
Defpoints
 62
     0
100
AcDbPoint
 10
1614.406819961732
 20
1174.787454158625
 30
0.0
  0
ENDBLK
  5
288
330
27D
100
AcDbEntity
  8
0
100
AcDbBlockEnd
  0
ENDSEC
  0
SECTION
  2
ENTITIES
  0
LINE
  5
16D
330
1F
100
AcDbEntity
  8
0
100
AcDbLine
 10
545.6224866995418
 20
797.6583304669039
 30
0.0
 11
545.6224866995417
 21
797.6583304669039
 31
0.0
  0
LINE
  5
16F
330
1F
100
AcDbEntity
  8
0
100
AcDbLine
 10
545.6224866995417
 20
240.6583304669038
 30
166.5
 11
676.9497671347304
 21
240.6583304669038
 31
166.5
  0
LINE
  5
174
330
1F
100
AcDbEntity
  8
0
100
AcDbLine
 10
682.8574525923045
 20
242.5899196856924
 30
166.5
 11
731.2169602387695
 21
277.998721716911
 31
166.5
  0
LINE
  5
175
330
1F
100
AcDbEntity
  8
0
100
AcDbLine
 10
737.1246456963436
 20
279.9303109356997
 30
166.5
 11
835.6224866995415
 21
279.9303109356997
 31
166.5
  0
LINE
  5
176
330
1F
100
AcDbEntity
  8
0
100
AcDbLine
 10
565.622486699542
 20
260.6583304669038
 30
166.5
 11
670.4105252178735
 21
260.6583304669038
 31
166.5
  0
LINE
  5
177
330
1F
100
AcDbEntity
  8
0
100
AcDbLine
 10
676.3182106754476
 20
262.5899196856924
 30
166.5
 11
724.677718321913
 21
297.9987217169112
 31
166.5
  0
LINE
  5
178
330
1F
100
AcDbEntity
  8
0
100
AcDbLine
 10
730.5854037794871
 20
299.9303109356998
 30
166.5
 11
835.6224866995415
 21
299.9303109356997
 31
166.5
  0
ARC
  5
179
330
1F
100
AcDbEntity
  8
0
100
AcDbCircle
 10
565.622486699542
 20
270.6583304669038
 30
166.5
 40
10.0
100
AcDbArc
 50
180.0
 51
270.0
  0
ARC
  5
17A
330
1F
100
AcDbEntity
  8
0
100
AcDbCircle
 10
670.4105252178735
 20
270.6583304669038
 30
166.5
 40
10.0
100
AcDbArc
 50
270.0
 51
306.211565524577
  0
ARC
  5
17B
330
1F
100
AcDbEntity
  8
0
100
AcDbCircle
 10
730.5854037794871
 20
289.9303109356998
 30
166.5
 40
10.0
100
AcDbArc
 50
89.99999999999998
 51
126.2115655245771
  0
ARC
  5
17C
330
1F
100
AcDbEntity
  8
0
100
AcDbCircle
 10
737.1246456963436
 20
269.9303109356997
 30
166.5
 40
10.0
100
AcDbArc
 50
90.0
 51
126.2115655245771
  0
ARC
  5
17D
330
1F
100
AcDbEntity
  8
0
100
AcDbCircle
 10
676.9497671347304
 20
250.6583304669038
 30
166.5
 40
10.0
100
AcDbArc
 50
270.0
 51
306.2115655245771
  0
ARC
  5
17E
102
{ACAD_REACTORS
330
24B
102
}
330
1F
100
AcDbEntity
  8
0
100
AcDbCircle
 10
545.6224866995417
 20
250.6583304669038
 30
166.5
 40
10.0
100
AcDbArc
 50
180.0
 51
270.0
  0
LINE
  5
182
330
1F
100
AcDbEntity
  8
0
100
AcDbLine
 10
718.4541508436478
 20
240.6583304669037
 30
-393.5
 11
835.6224866995415
 21
240.6583304669037
 31
-393.5
  0
LINE
  5
183
330
1F
100
AcDbEntity
  8
0
100
AcDbLine
 10
728.7101961023753
 20
260.6583304669037
 30
-393.5
 11
835.6224866995415
 21
260.6583304669038
 31
-393.5
  0
ARC
  5
184
330
1F
100
AcDbEntity
  8
0
100
AcDbCircle
 10
1449.712622168946
 20
782.5153557967467
 30
-393.5
 40
914.2183626081266
100
AcDbArc
 50
215.1210157883166
 51
216.0290482201353
  0
ARC
  5
185
330
1F
100
AcDbEntity
  8
0
100
AcDbCircle
 10
1449.712622168946
 20
782.5153557967467
 30
-393.5
 40
894.2183626081265
100
AcDbArc
 50
215.0966216146124
 51
215.3718618983076
  0
ARC
  5
186
330
1F
100
AcDbEntity
  8
0
100
AcDbCircle
 10
718.4541508436478
 20
250.6583304669037
 30
-393.5
 40
10.0
100
AcDbArc
 50
216.0290482201358
 51
270.0
  0
ARC
  5
187
330
1F
100
AcDbEntity
  8
0
100
AcDbCircle
 10
728.7101961023753
 20
270.6583304669037
 30
-393.5
 40
10.0
100
AcDbArc
 50
215.3718618983075
 51
270.0
  0
ARC
  5
188
102
{ACAD_REACTORS
330
24B
102
}
330
1F
100
AcDbEntity
  8
0
100
AcDbCircle
 10
545.6224866995417
 20
787.6583304669038
 30
-113.5
 40
10.0
100
AcDbArc
 50
90.0
 51
180.0
  0
ARC
  5
189
330
1F
100
AcDbEntity
  8
0
100
AcDbCircle
 10
545.6224866995418
 20
787.6583304669038
 30
-113.5
 40
10.0
100
AcDbArc
 50
0.0000000000000509
 51
90.0
  0
ARC
  5
18C
330
1F
100
AcDbEntity
  8
0
100
AcDbCircle
 10
1125.622486699541
 20
787.6583304669038
 30
-113.5
 40
10.0
100
AcDbArc
 50
0.000000000000007
 51
90.0
  0
ARC
  5
18D
330
1F
100
AcDbEntity
  8
0
100
AcDbCircle
 10
1125.622486699541
 20
787.6583304669038
 30
-113.5
 40
10.0
100
AcDbArc
 50
90.0
 51
179.9999999999999
  0
ARC
  5
190
330
1F
100
AcDbEntity
  8
0
100
AcDbCircle
 10
1125.622486699541
 20
250.6583304669038
 30
166.5
 40
10.0
100
AcDbArc
 50
270.0
 51
0.000000000000007
  0
LINE
  5
191
330
1F
100
AcDbEntity
  8
0
100
AcDbLine
 10
1125.622486699541
 20
240.6583304669038
 30
166.5
 11
994.2952062643525
 21
240.6583304669038
 31
166.5
  0
LINE
  5
192
330
1F
100
AcDbEntity
  8
0
100
AcDbLine
 10
1105.62248669954
 20
260.6583304669038
 30
166.5
 11
1000.834448181209
 21
260.6583304669038
 31
166.5
  0
ARC
  5
193
330
1F
100
AcDbEntity
  8
0
100
AcDbCircle
 10
1105.62248669954
 20
270.6583304669038
 30
166.5
 40
10.0
100
AcDbArc
 50
270.0
 51
0.000000000000007
  0
LINE
  5
194
330
1F
100
AcDbEntity
  8
0
100
AcDbLine
 10
994.9267627236352
 20
262.5899196856924
 30
166.5
 11
946.5672550771698
 21
297.9987217169112
 31
166.5
  0
ARC
  5
195
330
1F
100
AcDbEntity
  8
0
100
AcDbCircle
 10
994.2952062643525
 20
250.6583304669038
 30
166.5
 40
10.0
100
AcDbArc
 50
233.7884344754228
 51
270.0
  0
ARC
  5
196
330
1F
100
AcDbEntity
  8
0
100
AcDbCircle
 10
1000.834448181209
 20
270.6583304669038
 30
166.5
 40
10.0
100
AcDbArc
 50
233.7884344754229
 51
270.0
  0
LINE
  5
197
330
1F
100
AcDbEntity
  8
0
100
AcDbLine
 10
988.3875208067784
 20
242.5899196856924
 30
166.5
 11
940.0280131603134
 21
277.998721716911
 31
166.5
  0
ARC
  5
198
330
1F
100
AcDbEntity
  8
0
100
AcDbCircle
 10
221.5323512301367
 20
782.5153557967467
 30
-393.5
 40
914.2183626081266
100
AcDbArc
 50
323.9709517798646
 51
324.8789842116833
  0
ARC
  5
199
330
1F
100
AcDbEntity
  8
0
100
AcDbCircle
 10
221.5323512301367
 20
782.5153557967467
 30
-393.5
 40
894.2183626081265
100
AcDbArc
 50
324.6281381016923
 51
324.9033783853876
  0
ARC
  5
19A
330
1F
100
AcDbEntity
  8
0
100
AcDbCircle
 10
942.5347772967075
 20
270.6583304669037
 30
-393.5
 40
10.0
100
AcDbArc
 50
270.0
 51
324.6281381016924
  0
ARC
  5
19B
330
1F
100
AcDbEntity
  8
0
100
AcDbCircle
 10
934.1203277027393
 20
269.9303109356997
 30
166.5
 40
10.0
100
AcDbArc
 50
53.78843447542283
 51
90.0
  0
ARC
  5
19C
330
1F
100
AcDbEntity
  8
0
100
AcDbCircle
 10
940.6595696195958
 20
289.9303109356998
 30
166.5
 40
10.0
100
AcDbArc
 50
53.78843447542289
 51
90.00000000000003
  0
LINE
  5
19D
330
1F
100
AcDbEntity
  8
0
100
AcDbLine
 10
940.6595696195958
 20
299.9303109356998
 30
166.5
 11
835.6224866995415
 21
299.9303109356997
 31
166.5
  0
LINE
  5
19E
330
1F
100
AcDbEntity
  8
0
100
AcDbLine
 10
934.1203277027393
 20
279.9303109356997
 30
166.5
 11
835.6224866995415
 21
279.9303109356997
 31
166.5
  0
LINE
  5
19F
330
1F
100
AcDbEntity
  8
0
100
AcDbLine
 10
942.5347772967075
 20
260.6583304669037
 30
-393.5
 11
835.6224866995415
 21
260.6583304669038
 31
-393.5
  0
LINE
  5
1A0
330
1F
100
AcDbEntity
  8
0
100
AcDbLine
 10
952.7908225554352
 20
240.6583304669037
 30
-393.5
 11
835.6224866995415
 21
240.6583304669037
 31
-393.5
  0
ARC
  5
1A1
330
1F
100
AcDbEntity
  8
0
100
AcDbCircle
 10
952.7908225554352
 20
250.6583304669037
 30
-393.5
 40
10.0
100
AcDbArc
 50
270.0
 51
323.9709517798641
  0
HATCH
  5
1C7
330
1F
100
AcDbEntity
  8
srafy
100
AcDbHatch
 10
0.0
 20
0.0
 30
0.0
210
0.0
220
0.0
230
1.0
  2
NET
 70
     0
 71
     0
 91
        1
 92
        1
 93
        2
 72
     2
 10
835.6224866995415
 20
797.6583304669039
 40
199.9999999999998
 50
180.0
 51
360.0
 73
     1
 72
     1
 10
1035.622486699541
 20
797.6583304669039
 11
635.6224866995416
 21
797.6583304669039
 97
        0
 75
     0
 76
     1
 52
0.0
 41
5.0
 77
     0
 78
     2
 53
0.0
 43
0.0
 44
0.0
 45
0.0
 46
15.875
 79
     0
 53
90.0
 43
0.0
 44
0.0
 45
-15.875
 46
0.000000000000001
 79
     0
 98
        1
 10
0.0
 20
0.0
  0
DIMENSION
  5
204
330
1F
100
AcDbEntity
  8
koty
100
AcDbDimension
  2
*D1
 10
1135.622486699541
 20
137.4664921267376
 30
0.0
 11
835.6224866995415
 21
153.7164921267376
 31
0.0
 70
    32
 71
     5
 42
599.9999999999995
  3
ISO-25
100
AcDbAlignedDimension
 13
535.6224866995416
 23
250.6583304669038
 33
0.0
 14
1135.622486699541
 24
250.6583304669038
 34
0.0
100
AcDbRotatedDimension
  0
DIMENSION
  5
21C
330
1F
100
AcDbEntity
  8
koty
100
AcDbDimension
  2
*D2
 10
1035.622486699541
 20
1174.787454158625
 30
0.0
 11
835.6224866995415
 21
1191.037454158625
 31
0.0
 70
    32
 71
     5
 42
399.9999999999997
  3
ISO-25
100
AcDbAlignedDimension
 13
635.6224866995416
 23
797.6583304669039
 33
0.0
 14
1035.622486699541
 24
797.6583304669039
 34
0.0
100
AcDbRotatedDimension
  0
DIMENSION
  5
234
102
{ACAD_XDICTIONARY
360
241
102
}
102
{ACAD_REACTORS
330
24B
102
}
330
1F
100
AcDbEntity
  8
koty
100
AcDbDimension
  2
*D3
 10
453.4731448893617
 20
240.6583304669038
 30
0.0
 11
437.2231448893617
 21
514.158330466904
 31
0.0
 70
    32
 71
     5
 42
547.0
  3
ISO-25
100
AcDbAlignedDimension
 13
535.6224866995416
 23
787.6583304669038
 33
-113.5
 14
545.6224866995417
 24
240.6583304669038
 34
166.5
 50
90.0
100
AcDbRotatedDimension
  0
DIMENSION
  5
24C
330
1F
100
AcDbEntity
  8
koty
100
AcDbDimension
  2
*D4
 10
2007.906819961732
 20
137.4664921267376
 30
0.0
 11
1727.906819961732
 21
153.7164921267376
 31
0.0
 70
    32
 71
     5
 42
560.0
  3
ISO-25
100
AcDbAlignedDimension
 13
1447.906819961732
 23
240.6583304669036
 33
0.0
 14
2007.906819961732
 24
240.6583304669037
 34
0.0
100
AcDbRotatedDimension
  0
DIMENSION
  5
264
330
1F
100
AcDbEntity
  8
koty
100
AcDbDimension
  2
*D5
 10
2112.582717533329
 20
1081.658330466903
 30
0.0
 11
2096.332717533328
 21
661.1583304669039
 31
0.0
 70
    32
 71
     5
 42
840.9999999999994
  3
ISO-25
100
AcDbAlignedDimension
 13
2007.906819961732
 23
240.6583304669037
 33
0.0
 14
1706.482058883239
 24
1081.658330466903
 34
0.0
 50
90.0
100
AcDbRotatedDimension
  0
DIMENSION
  5
27C
330
1F
100
AcDbEntity
  8
koty
100
AcDbDimension
  2
*D6
 10
1614.406819961732
 20
1174.787454158625
 30
0.0
 11
1727.906819961732
 21
1191.037454158625
 31
0.0
 70
    32
 71
     5
 42
226.9999999999997
  3
ISO-25
100
AcDbAlignedDimension
 13
1841.406819961732
 23
1077.658330466903
 33
0.0
 14
1614.406819961732
 24
1002.658330466904
 34
0.0
100
AcDbRotatedDimension
  0
TEXT
  5
294
330
1F
100
AcDbEntity
  8
popis
100
AcDbText
 10
830.9486726402974
 20
1291.016881975797
 30
0.0
 40
30.0
  1
PBT/4 400 - mobilní axiální ventilátor
100
AcDbText
  0
3DSOLID
  5
2BE
330
1F
100
AcDbEntity
  8
0
100
AcDbModelerGeometry
 70
     1
  1
koo mj n o          
  1
h J1410(1 nl ^ \VL kqoqm QK mk L>+ Q0) nm noengelj mooj 
  1
rn fqfffffffffffffffj:rooh n:rono 
  1
=0;& {rn {n {rn {rn |
  1
3*2/ {rn {rn {m {o |
  1
,7:33 {rn {rn {rn {l {rn {n |
  1
9><: {rn {k {j {m {rn {i 90-(>-; ,6183: |
  1
9><: {rn {h {g {m {rn {f -:):-,:; ,6183: |
  1
300/ {rn {no {nn {l |
  1
<01:r,*-9><: {rn gljqimmkgiiffjknh hfhqijgllokiifolgi o o o rn mhfqffffffffffffgf o o n V V o n mhfqffffffffffffgf 90-(>-; V V V V |
  1
9><: {rn {rn {nm {m {rn {nl 90-(>-; ,6183: |
  1
300/ {rn {rn {nk {k |
  1
/3>1:r,*-9><: {rn nnnjqimmkgiiffjknh hfhqijgllokiifolgi rj o o n n o o 90-(>-;@) V V V V |
  1
300/ {rn {rn {nj {l |
  1
<0:;8: {rn {nn {nn {nk {ni 90-(>-; {j {rn |
  1
300/ {rn {rn {nh {h |
  1
/3>1:r,*-9><: {rn gljqimmkgiiffjkmnj hfhqijgllokiifolng o o o n n o o 90-(>-;@) V V V V |
  1
<0:;8: {rn {nk {nk {nn {ni -:):-,:; {g {rn |
  1
<0:;8: {rn {nj {nj {nh {ng -:):-,:; {no {rn |
  1
:;8: {rn {nf {nf {nn {mo 90-(>-; |
  1
<0:;8: {rn {nh {nh {nj {ng 90-(>-; {nm {rn |
  1
:;8: {rn {mn {mn {nh {mm 90-(>-; |
  1
):-+:' {rn {ni {ml |
  1
:336/,:r<*-): {rn gljqimmkgiiffjknh hfhqijgllokiifolgi rj o o n mhfqffffffffffffgf o o n V V |
  1
):-+:' {rn {ng {mk |
  1
:336/,:r<*-): {rn gljqimmkgiiffjknh hfhqijgllokiifolgi o o o n mhfqffffffffffffgf o o n V V |
  1
/061+ {rn nnnjqimmkgiiffjknh hfhqijgllokiifolgi rj |
  1
/061+ {rn nnnjqimmkgiiffjknh hfhqijgllokiifolgi o |
  0
3DSOLID
  5
2BF
330
1F
100
AcDbEntity
  8
0
100
AcDbModelerGeometry
 70
     1
  1
koo mj n o          
  1
h J1410(1 nl ^ \VL kqoqm QK mk L>+ Q0) nm noengelj mooj 
  1
rn fqfffffffffffffffj:rooh n:rono 
  1
=0;& {rn {n {rn {rn |
  1
3*2/ {rn {rn {m {o |
  1
,7:33 {rn {rn {rn {l {rn {n |
  1
9><: {rn {k {j {m {rn {i 90-(>-; ,6183: |
  1
9><: {rn {h {g {m {rn {f -:):-,:; ,6183: |
  1
300/ {rn {no {nn {l |
  1
<01:r,*-9><: {rn gljqimmkgiiffjknh hfhqijgllokiifolgi o o o rn moo o o n V V o n moo 90-(>-; V V V V |
  1
9><: {rn {rn {nm {m {rn {nl 90-(>-; ,6183: |
  1
300/ {rn {rn {nk {k |
  1
/3>1:r,*-9><: {rn noljqimmkgiiffjknh hfhqijgllokiifolgi rmmh o o n n o o 90-(>-;@) V V V V |
  1
300/ {rn {rn {nj {l |
  1
<0:;8: {rn {nn {nn {nk {ni 90-(>-; {j {rn |
  1
300/ {rn {rn {nh {h |
  1
/3>1:r,*-9><: {rn gljqimmkgiiffjknfm hfhqijgllokiifolng o o o n n o o 90-(>-;@) V V V V |
  1
<0:;8: {rn {nk {nk {nn {ni -:):-,:; {g {rn |
  1
<0:;8: {rn {nj {nj {nh {ng -:):-,:; {no {rn |
  1
:;8: {rn {nf {nf {nn {mo 90-(>-; |
  1
<0:;8: {rn {nh {nh {nj {ng 90-(>-; {nm {rn |
  1
:;8: {rn {mn {mn {nh {mm 90-(>-; |
  1
):-+:' {rn {ni {ml |
  1
:336/,:r<*-): {rn gljqimmkgiiffjknh hfhqijgllokiifolgi rmmh o o n moo o o n V V |
  1
):-+:' {rn {ng {mk |
  1
:336/,:r<*-): {rn gljqimmkgiiffjknh hfhqijgllokiifolgi o o o n moo o o n V V |
  1
/061+ {rn noljqimmkgiiffjknh hfhqijgllokiifolgi rmmh |
  1
/061+ {rn noljqimmkgiiffjknh hfhqijgllokiifolgi o |
  0
3DSOLID
  5
2C1
330
1F
100
AcDbEntity
  8
0
100
AcDbModelerGeometry
 70
     1
  1
koo mj n o          
  1
h J1410(1 nl ^ \VL kqoqm QK mk L>+ Q0) nm noengelj mooj 
  1
rn fqfffffffffffffffj:rooh n:rono 
  1
=0;& {rn {n {rn {rn |
  1
3*2/ {rn {rn {m {o |
  1
,7:33 {rn {rn {rn {l {rn {n |
  1
9><: {rn {k {j {m {rn {i 90-(>-; ,6183: |
  1
9><: {rn {h {g {m {rn {f -:):-,:; ,6183: |
  1
300/ {rn {no {nn {l |
  1
<01:r,*-9><: {rn gljqimmkgiiffjknh hfhqijgllokiifolgi rmmm o o rn mofqimlonokkngjlfm o o n V V o n mofqimlonokkngjlfm 90-(>-; V V V V |
  1
9><: {rn {rn {nm {m {rn {nl 90-(>-; ,6183: |
  1
300/ {rn {rn {nk {k |
  1
/3>1:r,*-9><: {rn nokjqmkjkfhnknlfji hfhqijgllokiifolgi rmmh o o n n o o 90-(>-;@) V V V V |
  1
300/ {rn {rn {nj {l |
  1
<0:;8: {rn {nn {nn {nk {ni 90-(>-; {j {rn |
  1
300/ {rn {rn {nh {h |
  1
/3>1:r,*-9><: {rn gljqimmkgiiffjknfm hfhqijgllokiifolkn rmmm o o n n o o 90-(>-;@) V V V V |
  1
<0:;8: {rn {nk {nk {nn {ni -:):-,:; {g {rn |
  1
<0:;8: {rn {nj {nj {nh {ng -:):-,:; {no {rn |
  1
:;8: {rn {nf {nf {nn {mo 90-(>-; |
  1
<0:;8: {rn {nh {nh {nj {ng 90-(>-; {nm {rn |
  1
:;8: {rn {mn {mn {nh {mm 90-(>-; |
  1
):-+:' {rn {ni {ml |
  1
:336/,:r<*-): {rn gljqimmkgiiffjknh hfhqijgllokiifolgi rmmh o o n mofqimlonokkngjlfm o o n V V |
  1
):-+:' {rn {ng {mk |
  1
:336/,:r<*-): {rn gljqimmkgiiffjknh hfhqijgllokiifolgi rmmm o o n mofqimlonokkngjlfm o o n V V |
  1
/061+ {rn nokjqmkjkfhnknlfji hfhqijgllokiifolgi rmmh |
  1
/061+ {rn nokjqmkjkfhnknlfji hfhqijgllokiifolgi rmmm |
  0
LINE
  5
2DD
330
1F
100
AcDbEntity
  8
0
100
AcDbLine
 10
535.6224866995416
 20
787.6583304669038
 30
-113.5
 11
701.9379942176603
 21
256.560680637185
 31
-393.5
  0
LINE
  5
2DE
330
1F
100
AcDbEntity
  8
0
100
AcDbLine
 10
718.0778046586295
 20
268.3782400073839
 30
-393.5
 11
555.6224866995417
 21
787.6583304669038
 31
-113.5
  0
LINE
  5
2E0
330
1F
100
AcDbEntity
  8
0
100
AcDbLine
 10
555.622486699542
 20
270.6583304669038
 30
166.5
 11
555.6224866995417
 21
787.6583304669038
 31
-113.5
  0
LINE
  5
2E1
330
1F
100
AcDbEntity
  8
0
100
AcDbLine
 10
535.6224866995416
 20
787.6583304669038
 30
-113.5
 11
535.6224866995416
 21
250.6583304669038
 31
166.5
  0
LINE
  5
2E2
330
1F
100
AcDbEntity
  8
0
100
AcDbLine
 10
1115.622486699541
 20
787.6583304669038
 30
-113.5
 11
953.1671687404534
 21
268.3782400073839
 31
-393.5
  0
LINE
  5
2E3
330
1F
100
AcDbEntity
  8
0
100
AcDbLine
 10
969.3069791814224
 20
256.5606806371848
 30
-393.5
 11
1135.622486699541
 21
787.6583304669038
 31
-113.5
  0
LINE
  5
2E4
330
1F
100
AcDbEntity
  8
0
100
AcDbLine
 10
1135.622486699541
 20
787.6583304669038
 30
-113.5
 11
1135.622486699541
 21
250.6583304669038
 31
166.5
  0
LINE
  5
2E5
330
1F
100
AcDbEntity
  8
0
100
AcDbLine
 10
1115.622486699541
 20
270.6583304669038
 30
166.5
 11
1115.622486699541
 21
787.6583304669038
 31
-113.5
  0
LWPOLYLINE
  5
2E6
330
1F
100
AcDbEntity
  8
0
100
AcDbPolyline
 90
        3
 70
     1
 43
0.0
 10
1035.622486699541
 20
797.6583304669039
 10
735.6224866995416
 20
970.8634112237916
 10
735.6224866995416
 20
624.4532497100161
  0
ENDSEC
  0
SECTION
  2
OBJECTS
  0
DICTIONARY
  5
C
330
0
100
AcDbDictionary
281
     1
  3
ACAD_GROUP
350
D
  3
ACAD_LAYOUT
350
1A
  3
ACAD_MLINESTYLE
350
17
  3
ACAD_PLOTSETTINGS
350
19
  3
ACAD_PLOTSTYLENAME
350
E
  3
AcDbVariableDictionary
350
2E
  0
DICTIONARY
  5
241
330
234
100
AcDbDictionary
280
     1
281
     1
  3
ACAD_DIMASSOC
360
24B
  0
DICTIONARY
  5
D
102
{ACAD_REACTORS
330
C
102
}
330
C
100
AcDbDictionary
281
     1
  0
DICTIONARY
  5
1A
102
{ACAD_REACTORS
330
C
102
}
330
C
100
AcDbDictionary
281
     1
  3
Model
350
22
  3
Rozvržení1
350
1E
  3
Rozvržení2
350
26
  0
DICTIONARY
  5
17
102
{ACAD_REACTORS
330
C
102
}
330
C
100
AcDbDictionary
281
     1
  3
Standard
350
18
  0
DICTIONARY
  5
19
102
{ACAD_REACTORS
330
C
102
}
330
C
100
AcDbDictionary
281
     1
  0
ACDBDICTIONARYWDFLT
  5
E
102
{ACAD_REACTORS
330
C
102
}
330
C
100
AcDbDictionary
281
     1
  3
Normal
350
F
100
AcDbDictionaryWithDefault
340
F
  0
DICTIONARY
  5
2E
102
{ACAD_REACTORS
330
C
102
}
330
C
100
AcDbDictionary
281
     1
  3
DIMASSOC
350
30
  3
HIDETEXT
350
2F
  0
DIMASSOC
  5
24B
102
{ACAD_REACTORS
330
241
102
}
330
241
100
AcDbDimAssoc
330
234
 90
        3
 70
     0
 71
     0
  1
AcDbOsnapPointRef
 72
     1
331
188
 73
     2
 91
        0
 40
0.0
 10
535.6224866995416
 20
787.6583304669038
 30
-113.5
 75
     0
  1
AcDbOsnapPointRef
 72
     1
331
17E
 73
     2
 91
        0
 40
4.712388980384689
 10
545.6224866995417
 20
240.6583304669038
 30
166.5
 75
     0
  0
LAYOUT
  5
22
102
{ACAD_REACTORS
330
1A
102
}
330
1A
100
AcDbPlotSettings
  1

  2
D:\AutoCAD 2002Cz\plotters\PublishToWeb DWF.pc3
  4

  6

 40
0.0
 41
0.0
 42
0.0
 43
0.0
 44
0.0
 45
0.0
 46
0.0
 47
0.0
 48
0.0
 49
0.0
140
0.0
141
0.0
142
1.0
143
1.0
 70
  1712
 72
     0
 73
     0
 74
     0
  7

 75
     0
147
1.0
148
0.0
149
0.0
100
AcDbLayout
  1
Model
 70
     1
 71
     0
 10
0.0
 20
0.0
 11
12.0
 21
9.0
 12
0.0
 22
0.0
 32
0.0
 14
0.0
 24
0.0
 34
0.0
 15
0.0
 25
0.0
 35
0.0
146
0.0
 13
0.0
 23
0.0
 33
0.0
 16
1.0
 26
0.0
 36
0.0
 17
0.0
 27
1.0
 37
0.0
 76
     0
330
1F
  0
LAYOUT
  5
1E
102
{ACAD_REACTORS
330
1A
102
}
330
1A
100
AcDbPlotSettings
  1

  2
D:\AutoCAD 2002Cz\plotters\PublishToWeb DWF.pc3
  4

  6

 40
0.0
 41
0.0
 42
0.0
 43
0.0
 44
0.0
 45
0.0
 46
0.0
 47
0.0
 48
0.0
 49
0.0
140
0.0
141
0.0
142
1.0
143
1.0
 70
   688
 72
     0
 73
     0
 74
     5
  7

 75
    16
147
1.0
148
0.0
149
0.0
100
AcDbLayout
  1
Rozvržení1
 70
     1
 71
     1
 10
0.0
 20
0.0
 11
420.0
 21
297.0
 12
0.0
 22
0.0
 32
0.0
 14
1.000000000000000E+20
 24
1.000000000000000E+20
 34
1.000000000000000E+20
 15
-1.000000000000000E+20
 25
-1.000000000000000E+20
 35
-1.000000000000000E+20
146
0.0
 13
0.0
 23
0.0
 33
0.0
 16
1.0
 26
0.0
 36
0.0
 17
0.0
 27
1.0
 37
0.0
 76
     0
330
1B
  0
LAYOUT
  5
26
102
{ACAD_REACTORS
330
1A
102
}
330
1A
100
AcDbPlotSettings
  1

  2
D:\AutoCAD 2002Cz\plotters\PublishToWeb DWF.pc3
  4

  6

 40
0.0
 41
0.0
 42
0.0
 43
0.0
 44
0.0
 45
0.0
 46
0.0
 47
0.0
 48
0.0
 49
0.0
140
0.0
141
0.0
142
1.0
143
1.0
 70
   688
 72
     0
 73
     0
 74
     5
  7

 75
    16
147
1.0
148
0.0
149
0.0
100
AcDbLayout
  1
Rozvržení2
 70
     1
 71
     2
 10
0.0
 20
0.0
 11
12.0
 21
9.0
 12
0.0
 22
0.0
 32
0.0
 14
0.0
 24
0.0
 34
0.0
 15
0.0
 25
0.0
 35
0.0
146
0.0
 13
0.0
 23
0.0
 33
0.0
 16
1.0
 26
0.0
 36
0.0
 17
0.0
 27
1.0
 37
0.0
 76
     0
330
23
  0
MLINESTYLE
  5
18
102
{ACAD_REACTORS
330
17
102
}
330
17
100
AcDbMlineStyle
  2
STANDARD
 70
     0
  3

 62
   256
 51
90.0
 52
90.0
 71
     2
 49
0.5
 62
   256
  6
BYLAYER
 49
-0.5
 62
   256
  6
BYLAYER
  0
ACDBPLACEHOLDER
  5
F
102
{ACAD_REACTORS
330
E
102
}
330
E
  0
DICTIONARYVAR
  5
30
102
{ACAD_REACTORS
330
2E
102
}
330
2E
100
DictionaryVariables
280
     0
  1
2
  0
DICTIONARYVAR
  5
2F
102
{ACAD_REACTORS
330
2E
102
}
330
2E
100
DictionaryVariables
280
     0
  1
1
  0
ENDSEC
  0
EOF
