  0
SECTION
  2
HEADER
  9
$ACADVER
  1
AC1014
  9
$ACADMAINTVER
 70
     0
  9
$DWGCODEPAGE
  3
ANSI_1250
  9
$INSBASE
 10
0.0
 20
0.0
 30
0.0
  9
$EXTMIN
 10
-178.166911
 20
-481.968262
 30
0.0
  9
$EXTMAX
 10
698.563279
 20
347.223117
 30
0.0
  9
$LIMMIN
 10
0.0
 20
0.0
  9
$LIMMAX
 10
12.0
 20
9.0
  9
$ORTHOMODE
 70
     1
  9
$REGENMODE
 70
     1
  9
$FILLMODE
 70
     1
  9
$QTEXTMODE
 70
     0
  9
$MIRRTEXT
 70
     1
  9
$DRAGMODE
 70
     2
  9
$LTSCALE
 40
1.0
  9
$OSMODE
 70
    37
  9
$ATTMODE
 70
     1
  9
$TEXTSIZE
 40
0.2
  9
$TRACEWID
 40
0.05
  9
$TEXTSTYLE
  7
ED40
  9
$CLAYER
  8
V0-ZBYTEK
  9
$CELTYPE
  6
CONTINUOUS
  9
$CECOLOR
 62
    41
  9
$CELTSCALE
 40
3.0
  9
$DELOBJ
 70
     1
  9
$DISPSILH
 70
     0
  9
$DIMSCALE
 40
1.0
  9
$DIMASZ
 40
15.0
  9
$DIMEXO
 40
1.0
  9
$DIMDLI
 40
3.75
  9
$DIMRND
 40
0.0
  9
$DIMDLE
 40
0.0
  9
$DIMEXE
 40
1.25
  9
$DIMTP
 40
0.0
  9
$DIMTM
 40
0.0
  9
$DIMTXT
 40
20.0
  9
$DIMCEN
 40
3.0
  9
$DIMTSZ
 40
0.0
  9
$DIMTOL
 70
     0
  9
$DIMLIM
 70
     0
  9
$DIMTIH
 70
     0
  9
$DIMTOH
 70
     0
  9
$DIMSE1
 70
     0
  9
$DIMSE2
 70
     0
  9
$DIMTAD
 70
     1
  9
$DIMZIN
 70
     8
  9
$DIMBLK
  1

  9
$DIMASO
 70
     1
  9
$DIMSHO
 70
     1
  9
$DIMPOST
  1

  9
$DIMAPOST
  1

  9
$DIMALT
 70
     0
  9
$DIMALTD
 70
     4
  9
$DIMALTF
 40
0.0394
  9
$DIMLFAC
 40
1.0
  9
$DIMTOFL
 70
     1
  9
$DIMTVP
 40
0.0
  9
$DIMTIX
 70
     0
  9
$DIMSOXD
 70
     0
  9
$DIMSAH
 70
     1
  9
$DIMBLK1
  1
_OPEN
  9
$DIMBLK2
  1
_OPEN
  9
$DIMSTYLE
  2
ED20
  9
$DIMCLRD
 70
     0
  9
$DIMCLRE
 70
     0
  9
$DIMCLRT
 70
     0
  9
$DIMTFAC
 40
1.0
  9
$DIMGAP
 40
2.0
  9
$DIMJUST
 70
     0
  9
$DIMSD1
 70
     0
  9
$DIMSD2
 70
     0
  9
$DIMTOLJ
 70
     1
  9
$DIMTZIN
 70
     8
  9
$DIMALTZ
 70
     0
  9
$DIMALTTZ
 70
     0
  9
$DIMFIT
 70
     3
  9
$DIMUPT
 70
     0
  9
$DIMUNIT
 70
     2
  9
$DIMDEC
 70
     0
  9
$DIMTDEC
 70
     1
  9
$DIMALTU
 70
     8
  9
$DIMALTTD
 70
     4
  9
$DIMTXSTY
  7
ED20
  9
$DIMAUNIT
 70
     0
  9
$LUNITS
 70
     2
  9
$LUPREC
 70
     4
  9
$SKETCHINC
 40
0.1
  9
$FILLETRAD
 40
0.5
  9
$AUNITS
 70
     0
  9
$AUPREC
 70
     0
  9
$MENU
  1
.
  9
$ELEVATION
 40
0.0
  9
$PELEVATION
 40
0.0
  9
$THICKNESS
 40
0.0
  9
$LIMCHECK
 70
     0
  9
$BLIPMODE
 70
     0
  9
$CHAMFERA
 40
0.5
  9
$CHAMFERB
 40
0.5
  9
$CHAMFERC
 40
1.0
  9
$CHAMFERD
 40
0.0
  9
$SKPOLY
 70
     1
  9
$TDCREATE
 40
2451200.769872917
  9
$TDUPDATE
 40
2453310.563702905
  9
$TDINDWG
 40
0.0732475231
  9
$TDUSRTIMER
 40
0.0732475231
  9
$USRTIMER
 70
     1
  9
$ANGBASE
 50
0.0
  9
$ANGDIR
 70
     0
  9
$PDMODE
 70
     3
  9
$PDSIZE
 40
0.0
  9
$PLINEWID
 40
0.0
  9
$COORDS
 70
     1
  9
$SPLFRAME
 70
     0
  9
$SPLINETYPE
 70
     6
  9
$SPLINESEGS
 70
     8
  9
$ATTDIA
 70
     0
  9
$ATTREQ
 70
     1
  9
$HANDLING
 70
     1
  9
$HANDSEED
  5
AA5
  9
$SURFTAB1
 70
     6
  9
$SURFTAB2
 70
     6
  9
$SURFTYPE
 70
     6
  9
$SURFU
 70
     6
  9
$SURFV
 70
     6
  9
$UCSNAME
  2

  9
$UCSORG
 10
-983.5484934314704
 20
225.0980997435002
 30
0.0
  9
$UCSXDIR
 10
1.0
 20
0.0
 30
0.0
  9
$UCSYDIR
 10
0.0
 20
1.0
 30
0.0
  9
$PUCSNAME
  2

  9
$PUCSORG
 10
0.0
 20
0.0
 30
0.0
  9
$PUCSXDIR
 10
1.0
 20
0.0
 30
0.0
  9
$PUCSYDIR
 10
0.0
 20
1.0
 30
0.0
  9
$USERI1
 70
     0
  9
$USERI2
 70
     0
  9
$USERI3
 70
     0
  9
$USERI4
 70
     0
  9
$USERI5
 70
     0
  9
$USERR1
 40
0.0
  9
$USERR2
 40
0.0
  9
$USERR3
 40
0.0
  9
$USERR4
 40
0.0
  9
$USERR5
 40
0.0
  9
$WORLDVIEW
 70
     1
  9
$SHADEDGE
 70
     3
  9
$SHADEDIF
 70
    70
  9
$TILEMODE
 70
     1
  9
$MAXACTVP
 70
    48
  9
$PINSBASE
 10
0.0
 20
0.0
 30
0.0
  9
$PLIMCHECK
 70
     0
  9
$PEXTMIN
 10
1.000000E+20
 20
1.000000E+20
 30
1.000000E+20
  9
$PEXTMAX
 10
-1.000000E+20
 20
-1.000000E+20
 30
-1.000000E+20
  9
$PLIMMIN
 10
0.0
 20
0.0
  9
$PLIMMAX
 10
12.0
 20
9.0
  9
$UNITMODE
 70
     0
  9
$VISRETAIN
 70
     1
  9
$PLINEGEN
 70
     0
  9
$PSLTSCALE
 70
     1
  9
$TREEDEPTH
 70
  3020
  9
$PICKSTYLE
 70
     1
  9
$CMLSTYLE
  2
STANDARD
  9
$CMLJUST
 70
     0
  9
$CMLSCALE
 40
1.0
  9
$PROXYGRAPHICS
 70
     1
  9
$MEASUREMENT
 70
     0
  0
ENDSEC
  0
SECTION
  2
CLASSES
  0
CLASS
  1
HATCH
  2
AcDbHatch
  3
"ACAD_SEDONA"
 90
        0
280
     0
281
     1
  0
CLASS
  1
DICTIONARYVAR
  2
AcDbDictionaryVar
  3
"AutoCAD"
 90
        0
280
     0
281
     0
  0
CLASS
  1
LWPOLYLINE
  2
AcDbPolyline
  3
"AutoCAD"
 90
        0
280
     0
281
     1
  0
ENDSEC
  0
SECTION
  2
TABLES
  0
TABLE
  2
VPORT
  5
8
100
AcDbSymbolTable
 70
     9
  0
VPORT
  5
AA4
100
AcDbSymbolTableRecord
100
AcDbViewportTableRecord
  2
*ACTIVE
 70
     0
 10
0.0
 20
0.0
 11
1.0
 21
1.0
 12
260.198184
 22
-67.372572
 13
0.0
 23
0.0
 14
0.5
 24
0.5
 15
0.5
 25
0.5
 16
0.0
 26
0.0
 36
1.0
 17
0.0
 27
0.0
 37
0.0
 40
839.470611
 41
1.650104
 42
50.0
 43
0.0
 44
0.0
 50
0.0
 51
0.0
 71
     0
 72
   100
 73
     1
 74
     1
 75
     0
 76
     0
 77
     0
 78
     0
  0
ENDTAB
  0
TABLE
  2
LTYPE
  5
5
100
AcDbSymbolTable
 70
     3
  0
LTYPE
  5
13
100
AcDbSymbolTableRecord
100
AcDbLinetypeTableRecord
  2
BYBLOCK
 70
     0
  3

 72
    65
 73
     0
 40
0.0
  0
LTYPE
  5
14
100
AcDbSymbolTableRecord
100
AcDbLinetypeTableRecord
  2
BYLAYER
 70
     0
  3

 72
    65
 73
     0
 40
0.0
  0
LTYPE
  5
15
100
AcDbSymbolTableRecord
100
AcDbLinetypeTableRecord
  2
CONTINUOUS
 70
     0
  3
Solid line
 72
    65
 73
     0
 40
0.0
  0
LTYPE
  5
AA
100
AcDbSymbolTableRecord
100
AcDbLinetypeTableRecord
  2
DASHDOT
 70
     0
  3
Dash dot __ . __ . __ . __ . __ . __ . __ . __
 72
    65
 73
     4
 40
25.4
 49
12.7
 74
     0
 49
-6.35
 74
     0
 49
0.0
 74
     0
 49
-6.35
 74
     0
  0
LTYPE
  5
AB
100
AcDbSymbolTableRecord
100
AcDbLinetypeTableRecord
  2
DASHED
 70
     0
  3
Dashed __ __ __ __ __ __ __ __ __ __ __ __ __ _
 72
    65
 73
     2
 40
19.05
 49
12.7
 74
     0
 49
-6.35
 74
     0
  0
ENDTAB
  0
TABLE
  2
LAYER
  5
2
100
AcDbSymbolTable
 70
     6
  0
LAYER
  5
F
100
AcDbSymbolTableRecord
100
AcDbLayerTableRecord
  2
0
 70
     0
 62
     7
  6
CONTINUOUS
  0
LAYER
  5
AC
100
AcDbSymbolTableRecord
100
AcDbLayerTableRecord
  2
DEFPOINTS
 70
     0
 62
     7
  6
CONTINUOUS
  0
LAYER
  5
AD
100
AcDbSymbolTableRecord
100
AcDbLayerTableRecord
  2
V0-OBRYS
 70
     0
 62
    90
  6
CONTINUOUS
  0
LAYER
  5
AE
100
AcDbSymbolTableRecord
100
AcDbLayerTableRecord
  2
V0-VYPLNE
 70
     0
 62
    63
  6
DASHDOT
  0
LAYER
  5
AF
100
AcDbSymbolTableRecord
100
AcDbLayerTableRecord
  2
V0-NAZVY
 70
     0
 62
   210
  6
CONTINUOUS
  0
LAYER
  5
B0
100
AcDbSymbolTableRecord
100
AcDbLayerTableRecord
  2
V0-ZBYTEK
 70
     0
 62
    51
  6
CONTINUOUS
  0
ENDTAB
  0
TABLE
  2
STYLE
  5
3
100
AcDbSymbolTable
 70
     5
  0
STYLE
  5
10
100
AcDbSymbolTableRecord
100
AcDbTextStyleTableRecord
  2
STANDARD
 70
     0
 40
0.0
 41
1.0
 50
0.0
 71
     0
 42
0.2
  3
isocp.shx
  4

  0
STYLE
  5
B1
100
AcDbSymbolTableRecord
100
AcDbTextStyleTableRecord
  2
ED20
 70
     0
 40
20.0
 41
1.0
 50
0.0
 71
     0
 42
2.5
  3
ISOCP.shx
  4

  0
STYLE
  5
B2
100
AcDbSymbolTableRecord
100
AcDbTextStyleTableRecord
  2
ED10
 70
     0
 40
10.0
 41
1.0
 50
0.0
 71
     0
 42
10.0
  3
ISOCP.shx
  4

  0
STYLE
  5
32E
100
AcDbSymbolTableRecord
100
AcDbTextStyleTableRecord
  2
ED30
 70
     0
 40
30.0
 41
1.0
 50
0.0
 71
     0
 42
2.5
  3
ISOCP.shx
  4

  0
STYLE
  5
32F
100
AcDbSymbolTableRecord
100
AcDbTextStyleTableRecord
  2
ED40
 70
     0
 40
40.0
 41
1.0
 50
0.0
 71
     0
 42
20.0
  3
isocp.shx
  4

  0
ENDTAB
  0
TABLE
  2
VIEW
  5
6
100
AcDbSymbolTable
 70
     0
  0
ENDTAB
  0
TABLE
  2
UCS
  5
7
100
AcDbSymbolTable
 70
     0
  0
ENDTAB
  0
TABLE
  2
APPID
  5
9
100
AcDbSymbolTable
 70
     1
  0
APPID
  5
11
100
AcDbSymbolTableRecord
100
AcDbRegAppTableRecord
  2
ACAD
 70
     0
  0
ENDTAB
  0
TABLE
  2
DIMSTYLE
  5
A
100
AcDbSymbolTable
 70
     5
  0
DIMSTYLE
105
1D
100
AcDbSymbolTableRecord
100
AcDbDimStyleTableRecord
  2
STANDARD
 70
     0
  3

  4

  5

  6

  7

 40
1.0
 41
0.18
 42
0.0625
 43
0.38
 44
0.18
 45
0.0
 46
0.0
 47
0.0
 48
0.0
140
0.18
141
0.09
142
0.0
143
25.4
144
1.0
145
0.0
146
1.0
147
0.09
 71
     0
 72
     0
 73
     1
 74
     1
 75
     0
 76
     0
 77
     0
 78
     0
170
     0
171
     2
172
     0
173
     0
174
     0
175
     0
176
     0
177
     0
178
     0
270
     2
271
     4
272
     4
273
     2
274
     2
340
10
275
     0
280
     0
281
     0
282
     0
283
     1
284
     0
285
     0
286
     0
287
     3
288
     0
  0
DIMSTYLE
105
B3
102
{ACAD_REACTORS
330
105
330
F8
330
F7
330
104
330
F6
330
F5
330
97C
102
}
100
AcDbSymbolTableRecord
100
AcDbDimStyleTableRecord
  2
ED20
 70
     0
  3

  4

  5

  6
_OPEN
  7
_OPEN
 40
1.0
 41
15.0
 42
1.0
 43
3.75
 44
1.25
 45
0.0
 46
0.0
 47
0.0
 48
0.0
140
20.0
141
3.0
142
0.0
143
0.0394
144
1.0
145
0.0
146
1.0
147
2.0
 71
     0
 72
     0
 73
     0
 74
     0
 75
     0
 76
     0
 77
     1
 78
     8
170
     0
171
     4
172
     1
173
     1
174
     0
175
     0
176
     0
177
     0
178
     0
270
     2
271
     0
272
     1
273
     8
274
     4
340
B1
275
     0
280
     0
281
     0
282
     0
283
     1
284
     8
285
     0
286
     0
287
     3
288
     0
  0
DIMSTYLE
105
B4
100
AcDbSymbolTableRecord
100
AcDbDimStyleTableRecord
  2
ED10
 70
     0
  3

  4

  5

  6
_OPEN
  7
_OPEN
 40
1.0
 41
10.0
 42
1.0
 43
3.75
 44
1.25
 45
0.0
 46
0.0
 47
0.0
 48
0.0
140
10.0
141
2.0
142
0.0
143
0.0394
144
1.0
145
0.0
146
1.0
147
1.5
 71
     0
 72
     0
 73
     0
 74
     0
 75
     0
 76
     0
 77
     1
 78
     8
170
     0
171
     4
172
     1
173
     1
174
     0
175
     0
176
     0
177
     0
178
     0
270
     2
271
     0
272
     1
273
     8
274
     4
340
B2
275
     0
280
     0
281
     0
282
     0
283
     1
284
     8
285
     0
286
     0
287
     3
288
     0
  0
DIMSTYLE
105
330
100
AcDbSymbolTableRecord
100
AcDbDimStyleTableRecord
  2
ED40
 70
     0
  3

  4

  5

  6
_OPEN
  7
_OPEN
 40
0.0
 41
35.0
 42
1.0
 43
3.75
 44
1.25
 45
0.0
 46
0.0
 47
0.0
 48
0.0
140
40.0
141
3.0
142
0.0
143
0.0394
144
1.0
145
0.0
146
1.0
147
3.0
 71
     0
 72
     0
 73
     0
 74
     0
 75
     0
 76
     0
 77
     1
 78
     8
170
     0
171
     4
172
     1
173
     1
174
     0
175
     0
176
     0
177
     0
178
     0
270
     2
271
     0
272
     1
273
     8
274
     4
340
32F
275
     0
280
     0
281
     0
282
     0
283
     1
284
     8
285
     0
286
     0
287
     3
288
     0
  0
DIMSTYLE
105
331
100
AcDbSymbolTableRecord
100
AcDbDimStyleTableRecord
  2
ED30
 70
     0
  3

  4

  5

  6
_OPEN
  7
_OPEN
 40
0.0
 41
25.0
 42
1.0
 43
3.75
 44
1.25
 45
0.0
 46
0.0
 47
0.0
 48
0.0
140
30.0
141
3.0
142
0.0
143
0.0394
144
1.0
145
0.0
146
1.0
147
2.0
 71
     0
 72
     0
 73
     0
 74
     0
 75
     0
 76
     0
 77
     1
 78
     8
170
     0
171
     4
172
     1
173
     1
174
     0
175
     0
176
     0
177
     0
178
     0
270
     2
271
     0
272
     1
273
     8
274
     4
340
32E
275
     0
280
     0
281
     0
282
     0
283
     1
284
     8
285
     0
286
     0
287
     3
288
     0
  0
ENDTAB
  0
TABLE
  2
BLOCK_RECORD
  5
1
100
AcDbSymbolTable
 70
     8
  0
BLOCK_RECORD
  5
19
100
AcDbSymbolTableRecord
100
AcDbBlockTableRecord
  2
*MODEL_SPACE
  0
BLOCK_RECORD
  5
16
100
AcDbSymbolTableRecord
100
AcDbBlockTableRecord
  2
*PAPER_SPACE
  0
BLOCK_RECORD
  5
50
100
AcDbSymbolTableRecord
100
AcDbBlockTableRecord
  2
_OPEN
  0
BLOCK_RECORD
  5
62
100
AcDbSymbolTableRecord
100
AcDbBlockTableRecord
  2
*D1
  0
BLOCK_RECORD
  5
6E
100
AcDbSymbolTableRecord
100
AcDbBlockTableRecord
  2
*D2
  0
BLOCK_RECORD
  5
7A
100
AcDbSymbolTableRecord
100
AcDbBlockTableRecord
  2
*D3
  0
BLOCK_RECORD
  5
86
100
AcDbSymbolTableRecord
100
AcDbBlockTableRecord
  2
*D4
  0
BLOCK_RECORD
  5
92
100
AcDbSymbolTableRecord
100
AcDbBlockTableRecord
  2
*D5
  0
BLOCK_RECORD
  5
9E
100
AcDbSymbolTableRecord
100
AcDbBlockTableRecord
  2
*D6
  0
BLOCK_RECORD
  5
96E
100
AcDbSymbolTableRecord
100
AcDbBlockTableRecord
  2
*D7
  0
ENDTAB
  0
ENDSEC
  0
SECTION
  2
BLOCKS
  0
BLOCK
  5
1A
100
AcDbEntity
  8
0
100
AcDbBlockBegin
  2
*MODEL_SPACE
 70
     0
 10
0.0
 20
0.0
 30
0.0
  3
*MODEL_SPACE
  1

  0
ENDBLK
  5
1B
100
AcDbEntity
  8
0
100
AcDbBlockEnd
  0
BLOCK
  5
17
100
AcDbEntity
 67
     1
  8
0
100
AcDbBlockBegin
  2
*PAPER_SPACE
 70
     0
 10
0.0
 20
0.0
 30
0.0
  3
*PAPER_SPACE
  1

  0
ENDBLK
  5
18
100
AcDbEntity
 67
     1
  8
0
100
AcDbBlockEnd
  0
BLOCK
  5
54
100
AcDbEntity
  8
0
100
AcDbBlockBegin
  2
_OPEN
 70
     0
 10
0.0
 20
0.0
 30
0.0
  3
_OPEN
  1

  0
LINE
  5
51
100
AcDbEntity
  8
0
  6
BYBLOCK
 62
     0
100
AcDbLine
 10
-1.0
 20
0.166667
 30
0.0
 11
0.0
 21
0.0
 31
0.0
  0
LINE
  5
52
100
AcDbEntity
  8
0
  6
BYBLOCK
 62
     0
100
AcDbLine
 10
0.0
 20
0.0
 30
0.0
 11
-1.0
 21
-0.166667
 31
0.0
  0
LINE
  5
53
100
AcDbEntity
  8
0
  6
BYBLOCK
 62
     0
100
AcDbLine
 10
0.0
 20
0.0
 30
0.0
 11
-1.0
 21
0.0
 31
0.0
  0
ENDBLK
  5
55
100
AcDbEntity
  8
0
100
AcDbBlockEnd
  0
BLOCK
  5
A3B
100
AcDbEntity
  8
0
 48
3.0
100
AcDbBlockBegin
  2
*D1
 70
     1
 10
0.0
 20
0.0
 30
0.0
  3
*D1
  1

  0
LINE
  5
A3C
100
AcDbEntity
  8
0
  6
BYBLOCK
 62
     0
 48
3.0
100
AcDbLine
 10
76.451507
 20
-45.9019
 30
0.0
 11
76.451507
 21
-82.14865
 31
0.0
  0
LINE
  5
A3D
100
AcDbEntity
  8
0
  6
BYBLOCK
 62
     0
 48
3.0
100
AcDbLine
 10
676.451507
 20
-45.9019
 30
0.0
 11
676.451507
 21
-82.14865
 31
0.0
  0
LINE
  5
A3E
100
AcDbEntity
  8
0
  6
BYBLOCK
 62
     0
 48
3.0
100
AcDbLine
 10
91.451507
 20
-80.89865
 30
0.0
 11
661.451507
 21
-80.89865
 31
0.0
  0
INSERT
  5
A3F
100
AcDbEntity
  8
0
  6
BYBLOCK
 62
     0
 48
3.0
100
AcDbBlockReference
  2
_OPEN
 10
76.451507
 20
-80.89865
 30
0.0
 41
15.0
 42
15.0
 43
15.0
 50
180.0
  0
INSERT
  5
A40
100
AcDbEntity
  8
0
  6
BYBLOCK
 62
     0
 48
3.0
100
AcDbBlockReference
  2
_OPEN
 10
676.451507
 20
-80.89865
 30
0.0
 41
15.0
 42
15.0
 43
15.0
  0
MTEXT
  5
A41
100
AcDbEntity
  8
0
  6
BYBLOCK
 62
     0
 48
3.0
100
AcDbMText
 10
376.451507
 20
-68.89865
 30
0.0
 40
20.0
 41
0.0
 71
     5
 72
     1
  1
\A1;600
  7
ED20
  0
POINT
  5
A42
100
AcDbEntity
  8
DEFPOINTS
  6
BYBLOCK
 62
     0
 48
3.0
100
AcDbPoint
 10
76.451507
 20
-44.9019
 30
0.0
  0
POINT
  5
A43
100
AcDbEntity
  8
DEFPOINTS
  6
BYBLOCK
 62
     0
 48
3.0
100
AcDbPoint
 10
676.451507
 20
-44.9019
 30
0.0
  0
POINT
  5
A44
100
AcDbEntity
  8
DEFPOINTS
  6
BYBLOCK
 62
     0
 48
3.0
100
AcDbPoint
 10
676.451507
 20
-80.89865
 30
0.0
  0
ENDBLK
  5
A45
100
AcDbEntity
  8
0
 48
3.0
100
AcDbBlockEnd
  0
BLOCK
  5
A46
100
AcDbEntity
  8
0
 48
3.0
100
AcDbBlockBegin
  2
*D2
 70
     1
 10
0.0
 20
0.0
 30
0.0
  3
*D2
  1

  0
LINE
  5
A47
100
AcDbEntity
  8
0
  6
BYBLOCK
 62
     0
 48
3.0
100
AcDbLine
 10
66.451507
 20
-45.9019
 30
0.0
 11
66.451507
 21
-112.855332
 31
0.0
  0
LINE
  5
A48
100
AcDbEntity
  8
0
  6
BYBLOCK
 62
     0
 48
3.0
100
AcDbLine
 10
686.451507
 20
-44.230218
 30
0.0
 11
686.451507
 21
-112.855332
 31
0.0
  0
LINE
  5
A49
100
AcDbEntity
  8
0
  6
BYBLOCK
 62
     0
 48
3.0
100
AcDbLine
 10
81.451507
 20
-111.605332
 30
0.0
 11
671.451507
 21
-111.605332
 31
0.0
  0
INSERT
  5
A4A
100
AcDbEntity
  8
0
  6
BYBLOCK
 62
     0
 48
3.0
100
AcDbBlockReference
  2
_OPEN
 10
66.451507
 20
-111.605332
 30
0.0
 41
15.0
 42
15.0
 43
15.0
 50
180.0
  0
INSERT
  5
A4B
100
AcDbEntity
  8
0
  6
BYBLOCK
 62
     0
 48
3.0
100
AcDbBlockReference
  2
_OPEN
 10
686.451507
 20
-111.605332
 30
0.0
 41
15.0
 42
15.0
 43
15.0
  0
MTEXT
  5
A4C
100
AcDbEntity
  8
0
  6
BYBLOCK
 62
     0
 48
3.0
100
AcDbMText
 10
379.368411
 20
-99.603364
 30
0.0
 40
20.0
 41
0.0
 71
     5
 72
     1
  1
\A1;620
  7
ED20
  0
POINT
  5
A4D
100
AcDbEntity
  8
DEFPOINTS
  6
BYBLOCK
 62
     0
 48
3.0
100
AcDbPoint
 10
66.451507
 20
-44.9019
 30
0.0
  0
POINT
  5
A4E
100
AcDbEntity
  8
DEFPOINTS
  6
BYBLOCK
 62
     0
 48
3.0
100
AcDbPoint
 10
686.451507
 20
-43.230218
 30
0.0
  0
POINT
  5
A4F
100
AcDbEntity
  8
DEFPOINTS
  6
BYBLOCK
 62
     0
 48
3.0
100
AcDbPoint
 10
686.451507
 20
-111.605332
 30
0.0
  0
ENDBLK
  5
A50
100
AcDbEntity
  8
0
 48
3.0
100
AcDbBlockEnd
  0
BLOCK
  5
A51
100
AcDbEntity
  8
0
 48
3.0
100
AcDbBlockBegin
  2
*D3
 70
     1
 10
0.0
 20
0.0
 30
0.0
  3
*D3
  1

  0
LINE
  5
A52
100
AcDbEntity
  8
0
  6
BYBLOCK
 62
     0
 48
3.0
100
AcDbLine
 10
56.451507
 20
-25.9019
 30
0.0
 11
56.451507
 21
-147.947201
 31
0.0
  0
LINE
  5
A53
100
AcDbEntity
  8
0
  6
BYBLOCK
 62
     0
 48
3.0
100
AcDbLine
 10
696.451507
 20
-25.9019
 30
0.0
 11
696.451507
 21
-147.947201
 31
0.0
  0
LINE
  5
A54
100
AcDbEntity
  8
0
  6
BYBLOCK
 62
     0
 48
3.0
100
AcDbLine
 10
71.451507
 20
-146.697201
 30
0.0
 11
681.451507
 21
-146.697201
 31
0.0
  0
INSERT
  5
A55
100
AcDbEntity
  8
0
  6
BYBLOCK
 62
     0
 48
3.0
100
AcDbBlockReference
  2
_OPEN
 10
56.451507
 20
-146.697201
 30
0.0
 41
15.0
 42
15.0
 43
15.0
 50
180.0
  0
INSERT
  5
A56
100
AcDbEntity
  8
0
  6
BYBLOCK
 62
     0
 48
3.0
100
AcDbBlockReference
  2
_OPEN
 10
696.451507
 20
-146.697201
 30
0.0
 41
15.0
 42
15.0
 43
15.0
  0
MTEXT
  5
A57
100
AcDbEntity
  8
0
  6
BYBLOCK
 62
     0
 48
3.0
100
AcDbMText
 10
381.115941
 20
-134.697201
 30
0.0
 40
20.0
 41
0.0
 71
     5
 72
     1
  1
\A1;640
  7
ED20
  0
POINT
  5
A58
100
AcDbEntity
  8
DEFPOINTS
  6
BYBLOCK
 62
     0
 48
3.0
100
AcDbPoint
 10
56.451507
 20
-24.9019
 30
0.0
  0
POINT
  5
A59
100
AcDbEntity
  8
DEFPOINTS
  6
BYBLOCK
 62
     0
 48
3.0
100
AcDbPoint
 10
696.451507
 20
-24.9019
 30
0.0
  0
POINT
  5
A5A
100
AcDbEntity
  8
DEFPOINTS
  6
BYBLOCK
 62
     0
 48
3.0
100
AcDbPoint
 10
696.451507
 20
-146.697201
 30
0.0
  0
ENDBLK
  5
A5B
100
AcDbEntity
  8
0
 48
3.0
100
AcDbBlockEnd
  0
BLOCK
  5
A8B
100
AcDbEntity
  8
0
 48
3.0
100
AcDbBlockBegin
  2
*D4
 70
     1
 10
0.0
 20
0.0
 30
0.0
  3
*D4
  1

  0
LINE
  5
A8C
100
AcDbEntity
  8
0
  6
BYBLOCK
 62
     0
 48
3.0
100
AcDbLine
 10
55.451507
 20
325.0981
 30
0.0
 11
28.898435
 21
325.0981
 31
0.0
  0
LINE
  5
A8D
100
AcDbEntity
  8
0
  6
BYBLOCK
 62
     0
 48
3.0
100
AcDbLine
 10
55.451507
 20
-24.9019
 30
0.0
 11
28.898435
 21
-24.9019
 31
0.0
  0
LINE
  5
A8E
100
AcDbEntity
  8
0
  6
BYBLOCK
 62
     0
 48
3.0
100
AcDbLine
 10
30.148435
 20
310.0981
 30
0.0
 11
30.148435
 21
-9.9019
 31
0.0
  0
INSERT
  5
A8F
100
AcDbEntity
  8
0
  6
BYBLOCK
 62
     0
 48
3.0
100
AcDbBlockReference
  2
_OPEN
 10
30.148435
 20
325.0981
 30
0.0
 41
15.0
 42
15.0
 43
15.0
 50
90.0
  0
INSERT
  5
A90
100
AcDbEntity
  8
0
  6
BYBLOCK
 62
     0
 48
3.0
100
AcDbBlockReference
  2
_OPEN
 10
30.148435
 20
-24.9019
 30
0.0
 41
15.0
 42
15.0
 43
15.0
 50
270.0
  0
MTEXT
  5
A91
100
AcDbEntity
  8
0
  6
BYBLOCK
 62
     0
 48
3.0
100
AcDbMText
 10
18.148435
 20
150.0981
 30
0.0
 40
20.0
 41
0.0
 71
     5
 72
     1
  1
\A1;350
  7
ED20
 11
0.0
 21
1.0
 31
0.0
  0
POINT
  5
A92
100
AcDbEntity
  8
DEFPOINTS
  6
BYBLOCK
 62
     0
 48
3.0
100
AcDbPoint
 10
56.451507
 20
325.0981
 30
0.0
  0
POINT
  5
A93
100
AcDbEntity
  8
DEFPOINTS
  6
BYBLOCK
 62
     0
 48
3.0
100
AcDbPoint
 10
56.451507
 20
-24.9019
 30
0.0
  0
POINT
  5
A94
100
AcDbEntity
  8
DEFPOINTS
  6
BYBLOCK
 62
     0
 48
3.0
100
AcDbPoint
 10
30.148435
 20
-24.9019
 30
0.0
  0
ENDBLK
  5
A95
100
AcDbEntity
  8
0
 48
3.0
100
AcDbBlockEnd
  0
BLOCK
  5
A80
100
AcDbEntity
  8
0
 48
3.0
100
AcDbBlockBegin
  2
*D5
 70
     1
 10
0.0
 20
0.0
 30
0.0
  3
*D5
  1

  0
LINE
  5
A81
100
AcDbEntity
  8
0
  6
BYBLOCK
 62
     0
 48
3.0
100
AcDbLine
 10
56.975492
 20
335.0981
 30
0.0
 11
-3.251277
 21
335.0981
 31
0.0
  0
LINE
  5
A82
100
AcDbEntity
  8
0
  6
BYBLOCK
 62
     0
 48
3.0
100
AcDbLine
 10
55.451507
 20
-34.9019
 30
0.0
 11
-3.251277
 21
-34.9019
 31
0.0
  0
LINE
  5
A83
100
AcDbEntity
  8
0
  6
BYBLOCK
 62
     0
 48
3.0
100
AcDbLine
 10
-2.001277
 20
320.0981
 30
0.0
 11
-2.001277
 21
-19.9019
 31
0.0
  0
INSERT
  5
A84
100
AcDbEntity
  8
0
  6
BYBLOCK
 62
     0
 48
3.0
100
AcDbBlockReference
  2
_OPEN
 10
-2.001277
 20
335.0981
 30
0.0
 41
15.0
 42
15.0
 43
15.0
 50
90.0
  0
INSERT
  5
A85
100
AcDbEntity
  8
0
  6
BYBLOCK
 62
     0
 48
3.0
100
AcDbBlockReference
  2
_OPEN
 10
-2.001277
 20
-34.9019
 30
0.0
 41
15.0
 42
15.0
 43
15.0
 50
270.0
  0
MTEXT
  5
A86
100
AcDbEntity
  8
0
  6
BYBLOCK
 62
     0
 48
3.0
100
AcDbMText
 10
-14.001277
 20
148.472546
 30
0.0
 40
20.0
 41
0.0
 71
     5
 72
     1
  1
\A1;370
  7
ED20
 11
0.0
 21
1.0
 31
0.0
  0
POINT
  5
A87
100
AcDbEntity
  8
DEFPOINTS
  6
BYBLOCK
 62
     0
 48
3.0
100
AcDbPoint
 10
57.975492
 20
335.0981
 30
0.0
  0
POINT
  5
A88
100
AcDbEntity
  8
DEFPOINTS
  6
BYBLOCK
 62
     0
 48
3.0
100
AcDbPoint
 10
56.451507
 20
-34.9019
 30
0.0
  0
POINT
  5
A89
100
AcDbEntity
  8
DEFPOINTS
  6
BYBLOCK
 62
     0
 48
3.0
100
AcDbPoint
 10
-2.001277
 20
-34.9019
 30
0.0
  0
ENDBLK
  5
A8A
100
AcDbEntity
  8
0
 48
3.0
100
AcDbBlockEnd
  0
BLOCK
  5
A75
100
AcDbEntity
  8
0
 48
3.0
100
AcDbBlockBegin
  2
*D6
 70
     1
 10
0.0
 20
0.0
 30
0.0
  3
*D6
  1

  0
LINE
  5
A76
100
AcDbEntity
  8
0
  6
BYBLOCK
 62
     0
 48
3.0
100
AcDbLine
 10
75.451507
 20
345.0981
 30
0.0
 11
-41.440653
 21
345.0981
 31
0.0
  0
LINE
  5
A77
100
AcDbEntity
  8
0
  6
BYBLOCK
 62
     0
 48
3.0
100
AcDbLine
 10
75.451507
 20
-44.9019
 30
0.0
 11
-41.440653
 21
-44.9019
 31
0.0
  0
LINE
  5
A78
100
AcDbEntity
  8
0
  6
BYBLOCK
 62
     0
 48
3.0
100
AcDbLine
 10
-40.190653
 20
330.0981
 30
0.0
 11
-40.190653
 21
-29.9019
 31
0.0
  0
INSERT
  5
A79
100
AcDbEntity
  8
0
  6
BYBLOCK
 62
     0
 48
3.0
100
AcDbBlockReference
  2
_OPEN
 10
-40.190653
 20
345.0981
 30
0.0
 41
15.0
 42
15.0
 43
15.0
 50
90.0
  0
INSERT
  5
A7A
100
AcDbEntity
  8
0
  6
BYBLOCK
 62
     0
 48
3.0
100
AcDbBlockReference
  2
_OPEN
 10
-40.190653
 20
-44.9019
 30
0.0
 41
15.0
 42
15.0
 43
15.0
 50
270.0
  0
MTEXT
  5
A7B
100
AcDbEntity
  8
0
  6
BYBLOCK
 62
     0
 48
3.0
100
AcDbMText
 10
-52.190653
 20
144.580963
 30
0.0
 40
20.0
 41
0.0
 71
     5
 72
     1
  1
\A1;390
  7
ED20
 11
0.0
 21
1.0
 31
0.0
  0
POINT
  5
A7C
100
AcDbEntity
  8
DEFPOINTS
  6
BYBLOCK
 62
     0
 48
3.0
100
AcDbPoint
 10
76.451507
 20
345.0981
 30
0.0
  0
POINT
  5
A7D
100
AcDbEntity
  8
DEFPOINTS
  6
BYBLOCK
 62
     0
 48
3.0
100
AcDbPoint
 10
76.451507
 20
-44.9019
 30
0.0
  0
POINT
  5
A7E
100
AcDbEntity
  8
DEFPOINTS
  6
BYBLOCK
 62
     0
 48
3.0
100
AcDbPoint
 10
-40.190653
 20
-44.9019
 30
0.0
  0
ENDBLK
  5
A7F
100
AcDbEntity
  8
0
 48
3.0
100
AcDbBlockEnd
  0
BLOCK
  5
96F
100
AcDbEntity
  8
0
 48
3.0
100
AcDbBlockBegin
  2
*D7
 70
     1
 10
0.0
 20
0.0
 30
0.0
  3
*D7
  1

  0
LINE
  5
970
100
AcDbEntity
  8
0
  6
BYBLOCK
 62
     0
 48
3.0
100
AcDbLine
 10
-36.52157
 20
-20.9019
 30
0.0
 11
-36.52157
 21
-56.309774
 31
0.0
  0
LINE
  5
971
100
AcDbEntity
  8
0
  6
BYBLOCK
 62
     0
 48
3.0
100
AcDbLine
 10
-31.52157
 20
-20.9019
 30
0.0
 11
-31.52157
 21
-56.309774
 31
0.0
  0
LINE
  5
972
100
AcDbEntity
  8
0
  6
BYBLOCK
 62
     0
 48
3.0
100
AcDbLine
 10
-51.52157
 20
-55.059774
 30
0.0
 11
-66.52157
 21
-55.059774
 31
0.0
  0
LINE
  5
973
100
AcDbEntity
  8
0
  6
BYBLOCK
 62
     0
 48
3.0
100
AcDbLine
 10
-16.52157
 20
-55.059774
 30
0.0
 11
11.306858
 21
-55.059774
 31
0.0
  0
LINE
  5
974
100
AcDbEntity
  8
0
  6
BYBLOCK
 62
     0
 48
3.0
100
AcDbLine
 10
-36.52157
 20
-55.059774
 30
0.0
 11
-31.52157
 21
-55.059774
 31
0.0
  0
INSERT
  5
975
100
AcDbEntity
  8
0
  6
BYBLOCK
 62
     0
 48
3.0
100
AcDbBlockReference
  2
_OPEN
 10
-36.52157
 20
-55.059774
 30
0.0
 41
15.0
 42
15.0
 43
15.0
  0
INSERT
  5
976
100
AcDbEntity
  8
0
  6
BYBLOCK
 62
     0
 48
3.0
100
AcDbBlockReference
  2
_OPEN
 10
-31.52157
 20
-55.059774
 30
0.0
 41
15.0
 42
15.0
 43
15.0
 50
180.0
  0
MTEXT
  5
977
100
AcDbEntity
  8
0
  6
BYBLOCK
 62
     0
 48
3.0
100
AcDbMText
 10
4.892644
 20
-43.059774
 30
0.0
 40
20.0
 41
0.0
 71
     5
 72
     1
  1
\A1;5
  7
ED20
  0
POINT
  5
978
100
AcDbEntity
  8
DEFPOINTS
  6
BYBLOCK
 62
     0
 48
3.0
100
AcDbPoint
 10
-36.52157
 20
-19.9019
 30
0.0
  0
POINT
  5
979
100
AcDbEntity
  8
DEFPOINTS
  6
BYBLOCK
 62
     0
 48
3.0
100
AcDbPoint
 10
-31.52157
 20
-19.9019
 30
0.0
  0
POINT
  5
97A
100
AcDbEntity
  8
DEFPOINTS
  6
BYBLOCK
 62
     0
 48
3.0
100
AcDbPoint
 10
-31.52157
 20
-55.059774
 30
0.0
  0
ENDBLK
  5
97B
100
AcDbEntity
  8
0
 48
3.0
100
AcDbBlockEnd
  0
ENDSEC
  0
SECTION
  2
ENTITIES
  0
LINE
  5
B5
100
AcDbEntity
  8
V0-OBRYS
100
AcDbLine
 10
66.451507
 20
-44.9019
 30
0.0
 11
686.451507
 21
-44.9019
 31
0.0
  0
LINE
  5
B6
100
AcDbEntity
  8
V0-OBRYS
100
AcDbLine
 10
696.451507
 20
-34.9019
 30
0.0
 11
696.451507
 21
335.0981
 31
0.0
  0
LINE
  5
B7
100
AcDbEntity
  8
V0-OBRYS
100
AcDbLine
 10
686.451507
 20
345.0981
 30
0.0
 11
66.451507
 21
345.0981
 31
0.0
  0
LINE
  5
B8
100
AcDbEntity
  8
V0-OBRYS
100
AcDbLine
 10
56.451507
 20
335.0981
 30
0.0
 11
56.451507
 21
-34.9019
 31
0.0
  0
LINE
  5
B9
100
AcDbEntity
  8
V0-OBRYS
100
AcDbLine
 10
76.451507
 20
345.0981
 30
0.0
 11
76.451507
 21
-44.9019
 31
0.0
  0
LINE
  5
BA
100
AcDbEntity
  8
V0-OBRYS
100
AcDbLine
 10
696.451507
 20
325.0981
 30
0.0
 11
56.451507
 21
325.0981
 31
0.0
  0
LINE
  5
BB
100
AcDbEntity
  8
V0-OBRYS
100
AcDbLine
 10
676.451507
 20
-44.9019
 30
0.0
 11
676.451507
 21
345.0981
 31
0.0
  0
LINE
  5
BC
100
AcDbEntity
  8
V0-OBRYS
100
AcDbLine
 10
56.451507
 20
-24.9019
 30
0.0
 11
696.451507
 21
-24.9019
 31
0.0
  0
ARC
  5
BD
100
AcDbEntity
  8
V0-OBRYS
100
AcDbCircle
 10
66.451507
 20
-34.9019
 30
0.0
 40
10.0
100
AcDbArc
 50
180.0
 51
270.0
  0
ARC
  5
BE
100
AcDbEntity
  8
V0-OBRYS
100
AcDbCircle
 10
66.451507
 20
335.0981
 30
0.0
 40
10.0
100
AcDbArc
 50
90.0
 51
180.0
  0
ARC
  5
BF
100
AcDbEntity
  8
V0-OBRYS
100
AcDbCircle
 10
686.451507
 20
335.0981
 30
0.0
 40
10.0
100
AcDbArc
 50
0.0
 51
90.0
  0
ARC
  5
C0
100
AcDbEntity
  8
V0-OBRYS
100
AcDbCircle
 10
686.451507
 20
-34.9019
 30
0.0
 40
10.0
100
AcDbArc
 50
270.0
 51
0.0
  0
CIRCLE
  5
C1
100
AcDbEntity
  8
V0-OBRYS
100
AcDbCircle
 10
66.451507
 20
-34.9019
 30
0.0
 40
4.5
  0
CIRCLE
  5
C2
100
AcDbEntity
  8
V0-OBRYS
100
AcDbCircle
 10
66.451507
 20
335.0981
 30
0.0
 40
4.5
  0
CIRCLE
  5
C3
100
AcDbEntity
  8
V0-OBRYS
100
AcDbCircle
 10
686.451507
 20
335.0981
 30
0.0
 40
4.5
  0
CIRCLE
  5
C4
100
AcDbEntity
  8
V0-OBRYS
100
AcDbCircle
 10
686.451507
 20
-34.9019
 30
0.0
 40
4.5
  0
LINE
  5
C5
100
AcDbEntity
  8
V0-VYPLNE
100
AcDbLine
 10
57.975492
 20
335.0981
 30
0.0
 11
75.096727
 21
335.0981
 31
0.0
  0
LINE
  5
C6
100
AcDbEntity
  8
V0-VYPLNE
100
AcDbLine
 10
66.451507
 20
326.769782
 30
0.0
 11
66.451507
 21
343.334195
 31
0.0
  0
LINE
  5
C7
100
AcDbEntity
  8
V0-VYPLNE
100
AcDbLine
 10
57.975492
 20
-34.9019
 30
0.0
 11
75.096727
 21
-34.9019
 31
0.0
  0
LINE
  5
C8
100
AcDbEntity
  8
V0-VYPLNE
100
AcDbLine
 10
66.451507
 20
-43.230218
 30
0.0
 11
66.451507
 21
-26.665805
 31
0.0
  0
LINE
  5
C9
100
AcDbEntity
  8
V0-VYPLNE
100
AcDbLine
 10
677.975492
 20
335.0981
 30
0.0
 11
695.096727
 21
335.0981
 31
0.0
  0
LINE
  5
CA
100
AcDbEntity
  8
V0-VYPLNE
100
AcDbLine
 10
686.451507
 20
326.769782
 30
0.0
 11
686.451507
 21
343.334195
 31
0.0
  0
CIRCLE
  5
CB
100
AcDbEntity
  8
V0-OBRYS
100
AcDbCircle
 10
686.451507
 20
-34.9019
 30
0.0
 40
4.5
  0
LINE
  5
CC
100
AcDbEntity
  8
V0-VYPLNE
100
AcDbLine
 10
686.451507
 20
-43.230218
 30
0.0
 11
686.451507
 21
-26.665805
 31
0.0
  0
LINE
  5
CD
100
AcDbEntity
  8
V0-VYPLNE
100
AcDbLine
 10
677.975492
 20
-34.9019
 30
0.0
 11
695.096727
 21
-34.9019
 31
0.0
  0
MTEXT
  5
CE
100
AcDbEntity
  8
V0-ZBYTEK
 62
    51
100
AcDbMText
 10
380.126243
 20
-384.872359
 30
0.0
 40
31.5
 41
892.3329
 71
     5
 72
     5
  1
OCHRANNA MRIZKA
  7
ED10
  0
MTEXT
  5
CF
100
AcDbEntity
  8
V0-ZBYTEK
100
AcDbMText
 10
376.539939
 20
-453.057215
 30
0.0
 40
22.5
 41
353.465
 71
     5
 72
     5
  1
PRO CTYRHRANNE POTRUBI
  7
ED10
  0
MTEXT
  5
D0
100
AcDbEntity
  8
V0-NAZVY
100
AcDbMText
 10
365.689884
 20
-302.419949
 30
0.0
 40
56.25
 41
462.6912
 71
     5
 72
     5
  1
IDF - 315
  7
ED10
  0
LINE
  5
D4
100
AcDbEntity
  8
V0-OBRYS
100
AcDbLine
 10
-143.115625
 20
-19.9019
 30
0.0
 11
-143.115625
 21
320.0981
 31
0.0
  0
LINE
  5
D6
100
AcDbEntity
  8
V0-OBRYS
100
AcDbLine
 10
-143.115625
 20
320.0981
 30
0.0
 11
-148.115625
 21
320.0981
 31
0.0
  0
LINE
  5
DA
100
AcDbEntity
  8
V0-OBRYS
100
AcDbLine
 10
-148.115625
 20
-19.9019
 30
0.0
 11
-148.115625
 21
320.0981
 31
0.0
  0
LINE
  5
DC
100
AcDbEntity
  8
V0-OBRYS
100
AcDbLine
 10
-148.115625
 20
-19.9019
 30
0.0
 11
-143.115625
 21
-19.9019
 31
0.0
  0
LINE
  5
DD
100
AcDbEntity
  8
V0-VYPLNE
100
AcDbLine
 10
-154.949139
 20
310.0981
 30
0.0
 11
-135.856862
 21
310.0981
 31
0.0
  0
LINE
  5
DE
100
AcDbEntity
  8
V0-VYPLNE
100
AcDbLine
 10
-155.903755
 20
-9.9019
 30
0.0
 11
-137.766091
 21
-9.9019
 31
0.0
  0
LINE
  5
DF
100
AcDbEntity
  8
V0-OBRYS
100
AcDbLine
 10
-148.115625
 20
-453.60509
 30
0.0
 11
-148.115625
 21
-329.778669
 31
0.0
  0
LINE
  5
E2
100
AcDbEntity
  8
V0-OBRYS
100
AcDbLine
 10
-143.115625
 20
-453.60509
 30
0.0
 11
-143.115625
 21
-331.377367
 31
0.0
  0
LINE
  5
E4
100
AcDbEntity
  8
V0-OBRYS
100
AcDbLine
 10
-148.115625
 20
-453.60509
 30
0.0
 11
-143.115625
 21
-453.60509
 31
0.0
  0
LINE
  5
EA
100
AcDbEntity
  8
V0-VYPLNE
100
AcDbLine
 10
-155.903755
 20
-443.60509
 30
0.0
 11
-137.766091
 21
-443.60509
 31
0.0
  0
LINE
  5
EB
100
AcDbEntity
  8
V0-VYPLNE
100
AcDbLine
 10
-154.949139
 20
-226.153986
 30
0.0
 11
-135.856862
 21
-226.153986
 31
0.0
  0
LINE
  5
EC
100
AcDbEntity
  8
V0-OBRYS
100
AcDbLine
 10
-143.115625
 20
-216.153986
 30
0.0
 11
-148.115625
 21
-216.153986
 31
0.0
  0
DIMENSION
  5
F5
100
AcDbEntity
  8
V0-VYPLNE
  6
CONTINUOUS
 62
    41
100
AcDbDimension
  2
*D6
 10
-40.190653
 20
-44.9019
 30
0.0
 11
-40.190653
 21
144.580963
 31
0.0
 70
   160
  3
ED20
100
AcDbAlignedDimension
 13
76.451507
 23
345.0981
 33
0.0
 14
76.451507
 24
-44.9019
 34
0.0
 50
90.0
100
AcDbRotatedDimension
  0
DIMENSION
  5
F6
100
AcDbEntity
  8
V0-VYPLNE
  6
CONTINUOUS
 62
    41
100
AcDbDimension
  2
*D5
 10
-2.001277
 20
-34.9019
 30
0.0
 11
-2.001277
 21
148.472546
 31
0.0
 70
   160
  3
ED20
100
AcDbAlignedDimension
 13
57.975492
 23
335.0981
 33
0.0
 14
56.451507
 24
-34.9019
 34
0.0
 50
90.0
100
AcDbRotatedDimension
  0
DIMENSION
  5
F7
100
AcDbEntity
  8
V0-VYPLNE
  6
CONTINUOUS
 62
    41
100
AcDbDimension
  2
*D3
 10
696.451507
 20
-146.697201
 30
0.0
 11
381.115941
 21
-146.697201
 31
0.0
 70
   160
  3
ED20
100
AcDbAlignedDimension
 13
56.451507
 23
-24.9019
 33
0.0
 14
696.451507
 24
-24.9019
 34
0.0
100
AcDbRotatedDimension
  0
DIMENSION
  5
F8
100
AcDbEntity
  8
V0-VYPLNE
  6
CONTINUOUS
 62
    41
100
AcDbDimension
  2
*D2
 10
686.451507
 20
-111.605332
 30
0.0
 11
379.368411
 21
-111.605332
 31
0.0
 70
   160
  3
ED20
100
AcDbAlignedDimension
 13
66.451507
 23
-44.9019
 33
0.0
 14
686.451507
 24
-43.230218
 34
0.0
100
AcDbRotatedDimension
  0
LEADER
  5
FF
100
AcDbEntity
  8
V0-VYPLNE
  6
CONTINUOUS
 62
    41
100
AcDbLeader
  3
ED20
 73
     0
 75
     1
 40
53.333333
 41
27.43187
 76
     3
 10
63.634085
 20
-38.52472
 30
0.0
 10
32.827821
 20
-78.768516
 30
0.0
 10
17.827821
 20
-78.768516
 30
0.0
 77
    41
340
100
  0
MTEXT
  5
100
102
{ACAD_REACTORS
330
FF
102
}
100
AcDbEntity
  8
V0-VYPLNE
  6
CONTINUOUS
 62
    41
100
AcDbMText
 10
15.827821
 20
-50.101849
 30
0.0
 40
20.0
 41
0.0
 71
     6
 72
     1
  1
\A1;\P%%c9
  7
ED20
  0
DIMENSION
  5
104
100
AcDbEntity
  8
V0-VYPLNE
  6
CONTINUOUS
 62
    41
100
AcDbDimension
  2
*D4
 10
30.148435
 20
-24.9019
 30
0.0
 11
18.148435
 21
150.0981
 31
0.0
 70
    32
  3
ED20
100
AcDbAlignedDimension
 13
56.451507
 23
325.0981
 33
0.0
 14
56.451507
 24
-24.9019
 34
0.0
 50
90.0
100
AcDbRotatedDimension
  0
DIMENSION
  5
105
100
AcDbEntity
  8
V0-VYPLNE
  6
CONTINUOUS
 62
    41
100
AcDbDimension
  2
*D1
 10
676.451507
 20
-80.89865
 30
0.0
 11
376.451507
 21
-68.89865
 31
0.0
 70
    32
  3
ED20
100
AcDbAlignedDimension
 13
76.451507
 23
-44.9019
 33
0.0
 14
676.451507
 24
-44.9019
 34
0.0
100
AcDbRotatedDimension
  0
LINE
  5
3B8
100
AcDbEntity
  8
V0-OBRYS
  6
CONTINUOUS
 48
3.0
100
AcDbLine
 10
76.451507
 20
-24.9019
 30
0.0
 11
56.451507
 21
-24.9019
 31
0.0
  0
LINE
  5
3BC
100
AcDbEntity
  8
V0-OBRYS
  6
CONTINUOUS
 48
3.0
100
AcDbLine
 10
-148.115625
 20
-216.153986
 30
0.0
 11
-148.115625
 21
-236.153986
 31
0.0
  0
LINE
  5
514
100
AcDbEntity
  8
V0-OBRYS
100
AcDbLine
 10
676.451507
 20
325.0981
 30
0.0
 11
76.451507
 21
325.0981
 31
0.0
  0
LINE
  5
515
100
AcDbEntity
  8
V0-OBRYS
100
AcDbLine
 10
76.451507
 20
325.0981
 30
0.0
 11
76.451507
 21
-24.9019
 31
0.0
  0
LINE
  5
516
100
AcDbEntity
  8
V0-OBRYS
100
AcDbLine
 10
76.451507
 20
-24.9019
 30
0.0
 11
676.451507
 21
-24.9019
 31
0.0
  0
LINE
  5
517
100
AcDbEntity
  8
V0-OBRYS
100
AcDbLine
 10
486.451507
 20
-24.9019
 30
0.0
 11
486.451507
 21
325.0981
 31
0.0
  0
LINE
  5
871
100
AcDbEntity
  8
V0-OBRYS
100
AcDbLine
 10
96.451507
 20
325.0981
 30
0.0
 11
96.451507
 21
-24.9019
 31
0.0
  0
LINE
  5
872
100
AcDbEntity
  8
V0-OBRYS
100
AcDbLine
 10
106.451507
 20
325.0981
 30
0.0
 11
106.451507
 21
-24.9019
 31
0.0
  0
LINE
  5
873
100
AcDbEntity
  8
V0-OBRYS
100
AcDbLine
 10
116.451507
 20
325.0981
 30
0.0
 11
116.451507
 21
-24.9019
 31
0.0
  0
LINE
  5
874
100
AcDbEntity
  8
V0-OBRYS
100
AcDbLine
 10
126.451507
 20
325.0981
 30
0.0
 11
126.451507
 21
-24.9019
 31
0.0
  0
LINE
  5
875
100
AcDbEntity
  8
V0-OBRYS
100
AcDbLine
 10
136.451507
 20
325.0981
 30
0.0
 11
136.451507
 21
-24.9019
 31
0.0
  0
LINE
  5
876
100
AcDbEntity
  8
V0-OBRYS
100
AcDbLine
 10
146.451507
 20
325.0981
 30
0.0
 11
146.451507
 21
-24.9019
 31
0.0
  0
LINE
  5
877
100
AcDbEntity
  8
V0-OBRYS
100
AcDbLine
 10
156.451507
 20
325.0981
 30
0.0
 11
156.451507
 21
-24.9019
 31
0.0
  0
LINE
  5
878
100
AcDbEntity
  8
V0-OBRYS
100
AcDbLine
 10
166.451507
 20
325.0981
 30
0.0
 11
166.451507
 21
-24.9019
 31
0.0
  0
LINE
  5
879
100
AcDbEntity
  8
V0-OBRYS
100
AcDbLine
 10
176.451507
 20
325.0981
 30
0.0
 11
176.451507
 21
-24.9019
 31
0.0
  0
LINE
  5
87A
100
AcDbEntity
  8
V0-OBRYS
100
AcDbLine
 10
186.451507
 20
325.0981
 30
0.0
 11
186.451507
 21
-24.9019
 31
0.0
  0
LINE
  5
87B
100
AcDbEntity
  8
V0-OBRYS
100
AcDbLine
 10
196.451507
 20
325.0981
 30
0.0
 11
196.451507
 21
-24.9019
 31
0.0
  0
LINE
  5
87C
100
AcDbEntity
  8
V0-OBRYS
100
AcDbLine
 10
206.451507
 20
325.0981
 30
0.0
 11
206.451507
 21
-24.9019
 31
0.0
  0
LINE
  5
87D
100
AcDbEntity
  8
V0-OBRYS
100
AcDbLine
 10
216.451507
 20
325.0981
 30
0.0
 11
216.451507
 21
-24.9019
 31
0.0
  0
LINE
  5
87E
100
AcDbEntity
  8
V0-OBRYS
100
AcDbLine
 10
226.451507
 20
325.0981
 30
0.0
 11
226.451507
 21
-24.9019
 31
0.0
  0
LINE
  5
87F
100
AcDbEntity
  8
V0-OBRYS
100
AcDbLine
 10
236.451507
 20
325.0981
 30
0.0
 11
236.451507
 21
-24.9019
 31
0.0
  0
LINE
  5
880
100
AcDbEntity
  8
V0-OBRYS
100
AcDbLine
 10
246.451507
 20
325.0981
 30
0.0
 11
246.451507
 21
-24.9019
 31
0.0
  0
LINE
  5
881
100
AcDbEntity
  8
V0-OBRYS
100
AcDbLine
 10
256.451507
 20
325.0981
 30
0.0
 11
256.451507
 21
-24.9019
 31
0.0
  0
LINE
  5
882
100
AcDbEntity
  8
V0-OBRYS
100
AcDbLine
 10
266.451507
 20
325.0981
 30
0.0
 11
266.451507
 21
-24.9019
 31
0.0
  0
LINE
  5
883
100
AcDbEntity
  8
V0-OBRYS
100
AcDbLine
 10
276.451507
 20
325.0981
 30
0.0
 11
276.451507
 21
-24.9019
 31
0.0
  0
LINE
  5
884
100
AcDbEntity
  8
V0-OBRYS
100
AcDbLine
 10
286.451507
 20
325.0981
 30
0.0
 11
286.451507
 21
-24.9019
 31
0.0
  0
LINE
  5
885
100
AcDbEntity
  8
V0-OBRYS
100
AcDbLine
 10
296.451507
 20
325.0981
 30
0.0
 11
296.451507
 21
-24.9019
 31
0.0
  0
LINE
  5
886
100
AcDbEntity
  8
V0-OBRYS
100
AcDbLine
 10
306.451507
 20
325.0981
 30
0.0
 11
306.451507
 21
-24.9019
 31
0.0
  0
LINE
  5
887
100
AcDbEntity
  8
V0-OBRYS
100
AcDbLine
 10
316.451507
 20
325.0981
 30
0.0
 11
316.451507
 21
-24.9019
 31
0.0
  0
LINE
  5
888
100
AcDbEntity
  8
V0-OBRYS
100
AcDbLine
 10
326.451507
 20
325.0981
 30
0.0
 11
326.451507
 21
-24.9019
 31
0.0
  0
LINE
  5
889
100
AcDbEntity
  8
V0-OBRYS
100
AcDbLine
 10
336.451507
 20
325.0981
 30
0.0
 11
336.451507
 21
-24.9019
 31
0.0
  0
LINE
  5
88A
100
AcDbEntity
  8
V0-OBRYS
100
AcDbLine
 10
346.451507
 20
325.0981
 30
0.0
 11
346.451507
 21
-24.9019
 31
0.0
  0
LINE
  5
88B
100
AcDbEntity
  8
V0-OBRYS
100
AcDbLine
 10
356.451507
 20
325.0981
 30
0.0
 11
356.451507
 21
-24.9019
 31
0.0
  0
LINE
  5
88C
100
AcDbEntity
  8
V0-OBRYS
100
AcDbLine
 10
366.451507
 20
325.0981
 30
0.0
 11
366.451507
 21
-24.9019
 31
0.0
  0
LINE
  5
88D
100
AcDbEntity
  8
V0-OBRYS
100
AcDbLine
 10
376.451507
 20
325.0981
 30
0.0
 11
376.451507
 21
-24.9019
 31
0.0
  0
LINE
  5
88E
100
AcDbEntity
  8
V0-OBRYS
100
AcDbLine
 10
386.451507
 20
325.0981
 30
0.0
 11
386.451507
 21
-24.9019
 31
0.0
  0
LINE
  5
88F
100
AcDbEntity
  8
V0-OBRYS
100
AcDbLine
 10
396.451507
 20
325.0981
 30
0.0
 11
396.451507
 21
-24.9019
 31
0.0
  0
LINE
  5
890
100
AcDbEntity
  8
V0-OBRYS
100
AcDbLine
 10
406.451507
 20
325.0981
 30
0.0
 11
406.451507
 21
-24.9019
 31
0.0
  0
LINE
  5
891
100
AcDbEntity
  8
V0-OBRYS
100
AcDbLine
 10
416.451507
 20
325.0981
 30
0.0
 11
416.451507
 21
-24.9019
 31
0.0
  0
LINE
  5
892
100
AcDbEntity
  8
V0-OBRYS
100
AcDbLine
 10
426.451507
 20
325.0981
 30
0.0
 11
426.451507
 21
-24.9019
 31
0.0
  0
LINE
  5
893
100
AcDbEntity
  8
V0-OBRYS
100
AcDbLine
 10
436.451507
 20
325.0981
 30
0.0
 11
436.451507
 21
-24.9019
 31
0.0
  0
LINE
  5
894
100
AcDbEntity
  8
V0-OBRYS
100
AcDbLine
 10
446.451507
 20
325.0981
 30
0.0
 11
446.451507
 21
-24.9019
 31
0.0
  0
LINE
  5
895
100
AcDbEntity
  8
V0-OBRYS
100
AcDbLine
 10
456.451507
 20
325.0981
 30
0.0
 11
456.451507
 21
-24.9019
 31
0.0
  0
LINE
  5
896
100
AcDbEntity
  8
V0-OBRYS
100
AcDbLine
 10
466.451507
 20
325.0981
 30
0.0
 11
466.451507
 21
-24.9019
 31
0.0
  0
LINE
  5
897
100
AcDbEntity
  8
V0-OBRYS
100
AcDbLine
 10
476.451507
 20
325.0981
 30
0.0
 11
476.451507
 21
-24.9019
 31
0.0
  0
LINE
  5
8AB
100
AcDbEntity
  8
V0-OBRYS
100
AcDbLine
 10
76.451507
 20
60.0981
 30
0.0
 11
676.451507
 21
60.0981
 31
0.0
  0
LINE
  5
8AC
100
AcDbEntity
  8
V0-OBRYS
100
AcDbLine
 10
76.451507
 20
70.0981
 30
0.0
 11
676.451507
 21
70.0981
 31
0.0
  0
LINE
  5
8AD
100
AcDbEntity
  8
V0-OBRYS
100
AcDbLine
 10
76.451507
 20
80.0981
 30
0.0
 11
676.451507
 21
80.0981
 31
0.0
  0
LINE
  5
8AE
100
AcDbEntity
  8
V0-OBRYS
100
AcDbLine
 10
76.451507
 20
90.0981
 30
0.0
 11
676.451507
 21
90.0981
 31
0.0
  0
LINE
  5
8AF
100
AcDbEntity
  8
V0-OBRYS
100
AcDbLine
 10
76.451507
 20
100.0981
 30
0.0
 11
676.451507
 21
100.0981
 31
0.0
  0
LINE
  5
8B0
100
AcDbEntity
  8
V0-OBRYS
100
AcDbLine
 10
76.451507
 20
110.0981
 30
0.0
 11
676.451507
 21
110.0981
 31
0.0
  0
LINE
  5
8B1
100
AcDbEntity
  8
V0-OBRYS
100
AcDbLine
 10
76.451507
 20
120.0981
 30
0.0
 11
676.451507
 21
120.0981
 31
0.0
  0
LINE
  5
8B2
100
AcDbEntity
  8
V0-OBRYS
100
AcDbLine
 10
76.451507
 20
130.0981
 30
0.0
 11
676.451507
 21
130.0981
 31
0.0
  0
LINE
  5
8B3
100
AcDbEntity
  8
V0-OBRYS
100
AcDbLine
 10
76.451507
 20
140.0981
 30
0.0
 11
676.451507
 21
140.0981
 31
0.0
  0
LINE
  5
8B4
100
AcDbEntity
  8
V0-OBRYS
100
AcDbLine
 10
76.451507
 20
150.0981
 30
0.0
 11
676.451507
 21
150.0981
 31
0.0
  0
LINE
  5
8B5
100
AcDbEntity
  8
V0-OBRYS
100
AcDbLine
 10
76.451507
 20
160.0981
 30
0.0
 11
676.451507
 21
160.0981
 31
0.0
  0
LINE
  5
8B6
100
AcDbEntity
  8
V0-OBRYS
100
AcDbLine
 10
76.451507
 20
170.0981
 30
0.0
 11
676.451507
 21
170.0981
 31
0.0
  0
LINE
  5
8B7
100
AcDbEntity
  8
V0-OBRYS
100
AcDbLine
 10
76.451507
 20
180.0981
 30
0.0
 11
676.451507
 21
180.0981
 31
0.0
  0
LINE
  5
8B8
100
AcDbEntity
  8
V0-OBRYS
100
AcDbLine
 10
76.451507
 20
190.0981
 30
0.0
 11
676.451507
 21
190.0981
 31
0.0
  0
LINE
  5
8B9
100
AcDbEntity
  8
V0-OBRYS
100
AcDbLine
 10
76.451507
 20
200.0981
 30
0.0
 11
676.451507
 21
200.0981
 31
0.0
  0
LINE
  5
8BA
100
AcDbEntity
  8
V0-OBRYS
100
AcDbLine
 10
76.451507
 20
210.0981
 30
0.0
 11
676.451507
 21
210.0981
 31
0.0
  0
LINE
  5
8BB
100
AcDbEntity
  8
V0-OBRYS
100
AcDbLine
 10
76.451507
 20
220.0981
 30
0.0
 11
676.451507
 21
220.0981
 31
0.0
  0
LINE
  5
8BC
100
AcDbEntity
  8
V0-OBRYS
100
AcDbLine
 10
76.451507
 20
230.0981
 30
0.0
 11
676.451507
 21
230.0981
 31
0.0
  0
LINE
  5
8BD
100
AcDbEntity
  8
V0-OBRYS
100
AcDbLine
 10
76.451507
 20
240.0981
 30
0.0
 11
676.451507
 21
240.0981
 31
0.0
  0
MTEXT
  5
8E0
100
AcDbEntity
  8
V0-ZBYTEK
  6
CONTINUOUS
 62
    41
 48
3.0
100
AcDbMText
 10
631.013254
 20
-196.664197
 30
0.0
 40
56.25
 41
293.5857
 71
     1
 72
     5
  1

  0
LINE
  5
8E7
100
AcDbEntity
  8
V0-ZBYTEK
  6
CONTINUOUS
 62
    41
 48
3.0
100
AcDbLine
 10
-157.313208
 20
-319.539095
 30
0.0
 11
-133.721501
 21
-329.142705
 31
0.0
  0
LINE
  5
8E8
100
AcDbEntity
  8
V0-ZBYTEK
  6
CONTINUOUS
 62
    41
 48
3.0
100
AcDbLine
 10
-155.565673
 20
-327.396594
 30
0.0
 11
-133.721501
 21
-334.381039
 31
0.0
  0
LINE
  5
8E9
100
AcDbEntity
  8
V0-OBRYS
100
AcDbLine
 10
-143.115625
 20
-325.318586
 30
0.0
 11
-143.115625
 21
-216.153986
 31
0.0
  0
LINE
  5
8EA
100
AcDbEntity
  8
V0-OBRYS
100
AcDbLine
 10
-148.115625
 20
-323.283208
 30
0.0
 11
-148.115625
 21
-216.153986
 31
0.0
  0
LINE
  5
936
100
AcDbEntity
  8
V0-OBRYS
100
AcDbLine
 10
496.451507
 20
-24.9019
 30
0.0
 11
496.451507
 21
325.0981
 31
0.0
  0
LINE
  5
937
100
AcDbEntity
  8
V0-OBRYS
100
AcDbLine
 10
506.451507
 20
-24.9019
 30
0.0
 11
506.451507
 21
325.0981
 31
0.0
  0
LINE
  5
938
100
AcDbEntity
  8
V0-OBRYS
100
AcDbLine
 10
516.451507
 20
-24.9019
 30
0.0
 11
516.451507
 21
325.0981
 31
0.0
  0
LINE
  5
939
100
AcDbEntity
  8
V0-OBRYS
100
AcDbLine
 10
526.451507
 20
-24.9019
 30
0.0
 11
526.451507
 21
325.0981
 31
0.0
  0
LINE
  5
93A
100
AcDbEntity
  8
V0-OBRYS
100
AcDbLine
 10
536.451507
 20
-24.9019
 30
0.0
 11
536.451507
 21
325.0981
 31
0.0
  0
LINE
  5
93B
100
AcDbEntity
  8
V0-OBRYS
100
AcDbLine
 10
546.451507
 20
-24.9019
 30
0.0
 11
546.451507
 21
325.0981
 31
0.0
  0
LINE
  5
93C
100
AcDbEntity
  8
V0-OBRYS
100
AcDbLine
 10
556.451507
 20
-24.9019
 30
0.0
 11
556.451507
 21
325.0981
 31
0.0
  0
LINE
  5
93D
100
AcDbEntity
  8
V0-OBRYS
100
AcDbLine
 10
566.451507
 20
-24.9019
 30
0.0
 11
566.451507
 21
325.0981
 31
0.0
  0
LINE
  5
93E
100
AcDbEntity
  8
V0-OBRYS
100
AcDbLine
 10
676.451507
 20
-24.9019
 30
0.0
 11
676.451507
 21
325.0981
 31
0.0
  0
LINE
  5
943
100
AcDbEntity
  8
V0-OBRYS
100
AcDbLine
 10
76.451507
 20
10.0981
 30
0.0
 11
676.451507
 21
10.0981
 31
0.0
  0
LINE
  5
944
100
AcDbEntity
  8
V0-OBRYS
100
AcDbLine
 10
76.451507
 20
20.0981
 30
0.0
 11
676.451507
 21
20.0981
 31
0.0
  0
LINE
  5
945
100
AcDbEntity
  8
V0-OBRYS
100
AcDbLine
 10
76.451507
 20
30.0981
 30
0.0
 11
676.451507
 21
30.0981
 31
0.0
  0
LINE
  5
946
100
AcDbEntity
  8
V0-OBRYS
100
AcDbLine
 10
76.451507
 20
40.0981
 30
0.0
 11
676.451507
 21
40.0981
 31
0.0
  0
LINE
  5
947
100
AcDbEntity
  8
V0-OBRYS
100
AcDbLine
 10
76.451507
 20
50.0981
 30
0.0
 11
676.451507
 21
50.0981
 31
0.0
  0
LINE
  5
948
100
AcDbEntity
  8
V0-OBRYS
100
AcDbLine
 10
76.451507
 20
60.0981
 30
0.0
 11
676.451507
 21
60.0981
 31
0.0
  0
LINE
  5
949
100
AcDbEntity
  8
V0-OBRYS
100
AcDbLine
 10
76.451507
 20
70.0981
 30
0.0
 11
676.451507
 21
70.0981
 31
0.0
  0
LINE
  5
94A
100
AcDbEntity
  8
V0-OBRYS
100
AcDbLine
 10
76.451507
 20
80.0981
 30
0.0
 11
676.451507
 21
80.0981
 31
0.0
  0
LINE
  5
94B
100
AcDbEntity
  8
V0-OBRYS
100
AcDbLine
 10
76.451507
 20
90.0981
 30
0.0
 11
676.451507
 21
90.0981
 31
0.0
  0
DIMENSION
  5
97C
100
AcDbEntity
  8
V0-ZBYTEK
  6
CONTINUOUS
 62
    41
 48
3.0
100
AcDbDimension
  2
*D7
 10
-143.115625
 20
-55.059774
 30
0.0
 11
-106.701411
 21
-43.059774
 31
0.0
 12
-111.594055
 22
0.0
 32
0.0
 70
    32
  3
ED20
100
AcDbAlignedDimension
 13
-148.115625
 23
-19.9019
 33
0.0
 14
-143.115625
 24
-19.9019
 34
0.0
100
AcDbRotatedDimension
  0
LINE
  5
A09
100
AcDbEntity
  8
V0-OBRYS
100
AcDbLine
 10
76.451507
 20
-19.9019
 30
0.0
 11
676.451507
 21
-19.9019
 31
0.0
  0
LINE
  5
A0C
100
AcDbEntity
  8
V0-OBRYS
100
AcDbLine
 10
76.451507
 20
-9.9019
 30
0.0
 11
676.451507
 21
-9.9019
 31
0.0
  0
LINE
  5
A0D
100
AcDbEntity
  8
V0-OBRYS
100
AcDbLine
 10
76.451507
 20
0.0981
 30
0.0
 11
676.451507
 21
0.0981
 31
0.0
  0
LINE
  5
A0E
100
AcDbEntity
  8
V0-OBRYS
100
AcDbLine
 10
76.451507
 20
250.0981
 30
0.0
 11
676.451507
 21
250.0981
 31
0.0
  0
LINE
  5
A0F
100
AcDbEntity
  8
V0-OBRYS
100
AcDbLine
 10
76.451507
 20
260.0981
 30
0.0
 11
676.451507
 21
260.0981
 31
0.0
  0
LINE
  5
A10
100
AcDbEntity
  8
V0-OBRYS
100
AcDbLine
 10
76.451507
 20
320.0981
 30
0.0
 11
676.451507
 21
320.0981
 31
0.0
  0
LINE
  5
A65
100
AcDbEntity
  8
V0-OBRYS
100
AcDbLine
 10
576.451507
 20
-24.9019
 30
0.0
 11
576.451507
 21
325.0981
 31
0.0
  0
LINE
  5
A66
100
AcDbEntity
  8
V0-OBRYS
100
AcDbLine
 10
586.451507
 20
-24.9019
 30
0.0
 11
586.451507
 21
325.0981
 31
0.0
  0
LINE
  5
A67
100
AcDbEntity
  8
V0-OBRYS
100
AcDbLine
 10
596.451507
 20
-24.9019
 30
0.0
 11
596.451507
 21
325.0981
 31
0.0
  0
LINE
  5
A68
100
AcDbEntity
  8
V0-OBRYS
100
AcDbLine
 10
606.451507
 20
-24.9019
 30
0.0
 11
606.451507
 21
325.0981
 31
0.0
  0
LINE
  5
A69
100
AcDbEntity
  8
V0-OBRYS
100
AcDbLine
 10
616.451507
 20
-24.9019
 30
0.0
 11
616.451507
 21
325.0981
 31
0.0
  0
LINE
  5
A6A
100
AcDbEntity
  8
V0-OBRYS
100
AcDbLine
 10
626.451507
 20
-24.9019
 30
0.0
 11
626.451507
 21
325.0981
 31
0.0
  0
LINE
  5
A6B
100
AcDbEntity
  8
V0-OBRYS
100
AcDbLine
 10
636.451507
 20
-24.9019
 30
0.0
 11
636.451507
 21
325.0981
 31
0.0
  0
LINE
  5
A6C
100
AcDbEntity
  8
V0-OBRYS
100
AcDbLine
 10
646.451507
 20
-24.9019
 30
0.0
 11
646.451507
 21
325.0981
 31
0.0
  0
LINE
  5
A6D
100
AcDbEntity
  8
V0-OBRYS
100
AcDbLine
 10
656.451507
 20
-24.9019
 30
0.0
 11
656.451507
 21
325.0981
 31
0.0
  0
LINE
  5
A6E
100
AcDbEntity
  8
V0-OBRYS
100
AcDbLine
 10
666.451507
 20
-24.9019
 30
0.0
 11
666.451507
 21
325.0981
 31
0.0
  0
LINE
  5
A6F
100
AcDbEntity
  8
V0-OBRYS
100
AcDbLine
 10
86.451507
 20
325.0981
 30
0.0
 11
86.451507
 21
-24.9019
 31
0.0
  0
LINE
  5
A9A
100
AcDbEntity
  8
V0-OBRYS
100
AcDbLine
 10
76.451507
 20
270.0981
 30
0.0
 11
676.451507
 21
270.0981
 31
0.0
  0
LINE
  5
A9B
100
AcDbEntity
  8
V0-OBRYS
100
AcDbLine
 10
76.451507
 20
280.0981
 30
0.0
 11
676.451507
 21
280.0981
 31
0.0
  0
LINE
  5
A9C
100
AcDbEntity
  8
V0-OBRYS
100
AcDbLine
 10
76.451507
 20
290.0981
 30
0.0
 11
676.451507
 21
290.0981
 31
0.0
  0
LINE
  5
A9D
100
AcDbEntity
  8
V0-OBRYS
100
AcDbLine
 10
76.451507
 20
300.0981
 30
0.0
 11
676.451507
 21
300.0981
 31
0.0
  0
LINE
  5
A9E
100
AcDbEntity
  8
V0-OBRYS
100
AcDbLine
 10
76.451507
 20
310.0981
 30
0.0
 11
676.451507
 21
310.0981
 31
0.0
  0
POINT
  5
AA0
100
AcDbEntity
  8
V0-ZBYTEK
  6
CONTINUOUS
 62
    41
 48
3.0
100
AcDbPoint
 10
376.451507
 20
150.0981
 30
0.0
  0
ENDSEC
  0
SECTION
  2
OBJECTS
  0
DICTIONARY
  5
C
100
AcDbDictionary
  3
ACAD_GROUP
350
D
  3
ACAD_MLINESTYLE
350
E
  3
ACDBVARIABLEDICTIONARY
350
249
  0
DICTIONARY
  5
D
102
{ACAD_REACTORS
330
C
102
}
100
AcDbDictionary
  0
DICTIONARY
  5
E
102
{ACAD_REACTORS
330
C
102
}
100
AcDbDictionary
  3
STANDARD
350
1C
  0
DICTIONARY
  5
249
102
{ACAD_REACTORS
330
C
102
}
100
AcDbDictionary
  3
SORTENTS
350
24A
  0
MLINESTYLE
  5
1C
102
{ACAD_REACTORS
330
E
102
}
100
AcDbMlineStyle
  2
STANDARD
 70
     0
  3

 62
     0
 51
90.0
 52
90.0
 71
     2
 49
0.5
 62
   256
  6
BYLAYER
 49
-0.5
 62
   256
  6
BYLAYER
  0
DICTIONARYVAR
  5
24A
102
{ACAD_REACTORS
330
249
102
}
100
DictionaryVariables
280
     0
  1
96
  0
ENDSEC
  0
EOF
