  0
SECTION
  2
HEADER
  9
$ACADVER
  1
AC1014
  9
$ACADMAINTVER
 70
     9
  9
$DWGCODEPAGE
  3
ANSI_1250
  9
$INSBASE
 10
0.0
 20
0.0
 30
0.0
  9
$EXTMIN
 10
-11.167696
 20
-264.739438
 30
0.0
  9
$EXTMAX
 10
347.260659
 20
121.2007986923067
 30
0.0
  9
$LIMMIN
 10
0.0
 20
0.0
  9
$LIMMAX
 10
0.0
 20
0.0
  9
$ORTHOMODE
 70
     1
  9
$REGENMODE
 70
     1
  9
$FILLMODE
 70
     1
  9
$QTEXTMODE
 70
     0
  9
$MIRRTEXT
 70
     1
  9
$DRAGMODE
 70
     2
  9
$LTSCALE
 40
15.0
  9
$OSMODE
 70
    37
  9
$ATTMODE
 70
     1
  9
$TEXTSIZE
 40
0.2
  9
$TRACEWID
 40
0.05
  9
$TEXTSTYLE
  7
ED10
  9
$CLAYER
  8
V0-VYPLNE
  9
$CELTYPE
  6
CONTINUOUS
  9
$CECOLOR
 62
    41
  9
$CELTSCALE
 40
1.0
  9
$DELOBJ
 70
     1
  9
$DISPSILH
 70
     0
  9
$DIMSCALE
 40
1.0
  9
$DIMASZ
 40
12.0
  9
$DIMEXO
 40
1.0
  9
$DIMDLI
 40
0.38
  9
$DIMRND
 40
0.0
  9
$DIMDLE
 40
0.0
  9
$DIMEXE
 40
1.25
  9
$DIMTP
 40
0.0
  9
$DIMTM
 40
0.0
  9
$DIMTXT
 40
10.0
  9
$DIMCEN
 40
0.09
  9
$DIMTSZ
 40
0.0
  9
$DIMTOL
 70
     0
  9
$DIMLIM
 70
     0
  9
$DIMTIH
 70
     0
  9
$DIMTOH
 70
     0
  9
$DIMSE1
 70
     0
  9
$DIMSE2
 70
     0
  9
$DIMTAD
 70
     1
  9
$DIMZIN
 70
     0
  9
$DIMBLK
  1
OPEN
  9
$DIMASO
 70
     1
  9
$DIMSHO
 70
     1
  9
$DIMPOST
  1

  9
$DIMAPOST
  1

  9
$DIMALT
 70
     0
  9
$DIMALTD
 70
     2
  9
$DIMALTF
 40
25.4
  9
$DIMLFAC
 40
1.0
  9
$DIMTOFL
 70
     1
  9
$DIMTVP
 40
0.0
  9
$DIMTIX
 70
     1
  9
$DIMSOXD
 70
     0
  9
$DIMSAH
 70
     0
  9
$DIMBLK1
  1

  9
$DIMBLK2
  1

  9
$DIMSTYLE
  2
ED5
  9
$DIMCLRD
 70
     0
  9
$DIMCLRE
 70
     0
  9
$DIMCLRT
 70
     0
  9
$DIMTFAC
 40
1.0
  9
$DIMGAP
 40
1.5
  9
$DIMJUST
 70
     0
  9
$DIMSD1
 70
     0
  9
$DIMSD2
 70
     0
  9
$DIMTOLJ
 70
     1
  9
$DIMTZIN
 70
     0
  9
$DIMALTZ
 70
     0
  9
$DIMALTTZ
 70
     0
  9
$DIMFIT
 70
     3
  9
$DIMUPT
 70
     1
  9
$DIMUNIT
 70
     2
  9
$DIMDEC
 70
     0
  9
$DIMTDEC
 70
     4
  9
$DIMALTU
 70
     2
  9
$DIMALTTD
 70
     2
  9
$DIMTXSTY
  7
ED5
  9
$DIMAUNIT
 70
     0
  9
$LUNITS
 70
     2
  9
$LUPREC
 70
     4
  9
$SKETCHINC
 40
0.1
  9
$FILLETRAD
 40
0.5
  9
$AUNITS
 70
     0
  9
$AUPREC
 70
     0
  9
$MENU
  1
.
  9
$ELEVATION
 40
0.0
  9
$PELEVATION
 40
0.0
  9
$THICKNESS
 40
0.0
  9
$LIMCHECK
 70
     0
  9
$BLIPMODE
 70
     0
  9
$CHAMFERA
 40
0.5
  9
$CHAMFERB
 40
0.5
  9
$CHAMFERC
 40
1.0
  9
$CHAMFERD
 40
0.0
  9
$SKPOLY
 70
     0
  9
$TDCREATE
 40
2455593.590814884
  9
$TDUPDATE
 40
2455593.590814896
  9
$TDINDWG
 40
0.0000000116
  9
$TDUSRTIMER
 40
0.0000000116
  9
$USRTIMER
 70
     1
  9
$ANGBASE
 50
0.0
  9
$ANGDIR
 70
     0
  9
$PDMODE
 70
     3
  9
$PDSIZE
 40
15.0
  9
$PLINEWID
 40
0.0
  9
$COORDS
 70
     1
  9
$SPLFRAME
 70
     0
  9
$SPLINETYPE
 70
     6
  9
$SPLINESEGS
 70
     8
  9
$ATTDIA
 70
     0
  9
$ATTREQ
 70
     1
  9
$HANDLING
 70
     1
  9
$HANDSEED
  5
B59
  9
$SURFTAB1
 70
     6
  9
$SURFTAB2
 70
     6
  9
$SURFTYPE
 70
     6
  9
$SURFU
 70
     6
  9
$SURFV
 70
     6
  9
$UCSNAME
  2

  9
$UCSORG
 10
0.0
 20
0.0
 30
0.0
  9
$UCSXDIR
 10
1.0
 20
0.0
 30
0.0
  9
$UCSYDIR
 10
0.0
 20
1.0
 30
0.0
  9
$PUCSNAME
  2

  9
$PUCSORG
 10
0.0
 20
0.0
 30
0.0
  9
$PUCSXDIR
 10
1.0
 20
0.0
 30
0.0
  9
$PUCSYDIR
 10
0.0
 20
1.0
 30
0.0
  9
$USERI1
 70
     0
  9
$USERI2
 70
     0
  9
$USERI3
 70
     0
  9
$USERI4
 70
     0
  9
$USERI5
 70
     0
  9
$USERR1
 40
0.0
  9
$USERR2
 40
0.0
  9
$USERR3
 40
0.0
  9
$USERR4
 40
0.0
  9
$USERR5
 40
0.0
  9
$WORLDVIEW
 70
     1
  9
$SHADEDGE
 70
     3
  9
$SHADEDIF
 70
    70
  9
$TILEMODE
 70
     1
  9
$MAXACTVP
 70
    64
  9
$PINSBASE
 10
0.0
 20
0.0
 30
0.0
  9
$PLIMCHECK
 70
     0
  9
$PEXTMIN
 10
1.000000000000000E+20
 20
1.000000000000000E+20
 30
1.000000000000000E+20
  9
$PEXTMAX
 10
-1.000000000000000E+20
 20
-1.000000000000000E+20
 30
-1.000000000000000E+20
  9
$PLIMMIN
 10
0.0
 20
0.0
  9
$PLIMMAX
 10
12.0
 20
9.0
  9
$UNITMODE
 70
     0
  9
$VISRETAIN
 70
     1
  9
$PLINEGEN
 70
     0
  9
$PSLTSCALE
 70
     1
  9
$TREEDEPTH
 70
  3020
  9
$PICKSTYLE
 70
     1
  9
$CMLSTYLE
  2
STANDARD
  9
$CMLJUST
 70
     0
  9
$CMLSCALE
 40
1.0
  9
$PROXYGRAPHICS
 70
     1
  9
$MEASUREMENT
 70
     0
  0
ENDSEC
  0
SECTION
  2
CLASSES
  0
CLASS
  1
ACDBDICTIONARYWDFLT
  2
AcDbDictionaryWithDefault
  3
ObjectDBX Classes
 90
        0
280
     0
281
     0
  0
CLASS
  1
XRECORD
  2
AcDbXrecord
  3
AutoCAD 2000
 90
        0
280
     0
281
     0
  0
CLASS
  1
LWPOLYLINE
  2
AcDbPolyline
  3
AutoCAD 2000
 90
        0
280
     0
281
     1
  0
CLASS
  1
HATCH
  2
AcDbHatch
  3
AutoCAD 2000
 90
        0
280
     0
281
     1
  0
CLASS
  1
ACDBPLACEHOLDER
  2
AcDbPlaceHolder
  3
ObjectDBX Classes
 90
        0
280
     0
281
     0
  0
CLASS
  1
LAYOUT
  2
AcDbLayout
  3
ObjectDBX Classes
 90
        0
280
     0
281
     0
  0
ENDSEC
  0
SECTION
  2
TABLES
  0
TABLE
  2
VPORT
  5
AAE
330
0
100
AcDbSymbolTable
 70
     2
  0
VPORT
  5
ACF
102
{ACAD_XDICTIONARY
360
B57
102
}
330
AAE
100
AcDbSymbolTableRecord
100
AcDbViewportTableRecord
  2
*ACTIVE
 70
     0
 10
0.0
 20
0.0
 11
1.0
 21
1.0
 12
243.290783
 22
-42.189177
 13
0.0
 23
0.0
 14
1.0
 24
1.0
 15
5.0
 25
5.0
 16
0.0
 26
0.0
 36
1.0
 17
0.0
 27
0.0
 37
0.0
 40
496.77092
 41
0.0357443562832804
 42
50.0
 43
0.0
 44
0.0
 50
0.0
 51
0.0000000000007958
 71
     0
 72
   100
 73
     1
 74
     3
 75
     0
 76
     0
 77
     0
 78
     0
  0
ENDTAB
  0
TABLE
  2
LTYPE
  5
AAB
330
0
100
AcDbSymbolTable
 70
    25
  0
LTYPE
  5
ABA
330
AAB
100
AcDbSymbolTableRecord
100
AcDbLinetypeTableRecord
  2
BYBLOCK
 70
     0
  3

 72
    65
 73
     0
 40
0.0
  0
LTYPE
  5
ABB
330
AAB
100
AcDbSymbolTableRecord
100
AcDbLinetypeTableRecord
  2
BYLAYER
 70
     0
  3

 72
    65
 73
     0
 40
0.0
  0
LTYPE
  5
ABC
330
AAB
100
AcDbSymbolTableRecord
100
AcDbLinetypeTableRecord
  2
CONTINUOUS
 70
     0
  3
Solid line
 72
    65
 73
     0
 40
0.0
  0
LTYPE
  5
AD7
330
AAB
100
AcDbSymbolTableRecord
100
AcDbLinetypeTableRecord
  2
CENTER
 70
     0
  3
Center ____ _ ____ _ ____ _ ____ _ ____ _ ____
 72
    65
 73
     4
 40
2.0
 49
1.25
 74
     0
 49
-0.25
 74
     0
 49
0.25
 74
     0
 49
-0.25
 74
     0
  0
LTYPE
  5
AD8
330
AAB
100
AcDbSymbolTableRecord
100
AcDbLinetypeTableRecord
  2
DASHDOT
 70
     0
  3
Dashdot __ . __ . __ . __ . __ . __ . __ . __
 72
    65
 73
     4
 40
1.0
 49
0.5
 74
     0
 49
-0.25
 74
     0
 49
0.0
 74
     0
 49
-0.25
 74
     0
  0
LTYPE
  5
AD9
330
AAB
100
AcDbSymbolTableRecord
100
AcDbLinetypeTableRecord
  2
DASHED
 70
     0
  3
Dashed __ __ __ __ __ __ __ __ __ __ __ __ __ _
 72
    65
 73
     2
 40
0.75
 49
0.5
 74
     0
 49
-0.25
 74
     0
  0
LTYPE
  5
ADA
330
AAB
100
AcDbSymbolTableRecord
100
AcDbLinetypeTableRecord
  2
HIDDEN
 70
     0
  3
Hidden __ __ __ __ __ __ __ __ __ __ __ __ __ __
 72
    65
 73
     2
 40
0.375
 49
0.25
 74
     0
 49
-0.125
 74
     0
  0
LTYPE
  5
ADB
330
AAB
100
AcDbSymbolTableRecord
100
AcDbLinetypeTableRecord
  2
HIDDEN2
 70
     0
  3
Hidden2 _ _ _ _ _ _ _ _ _ _ _ _ _ _ _ _ _ 
 72
    65
 73
     2
 40
0.1875
 49
0.125
 74
     0
 49
-0.0625
 74
     0
  0
LTYPE
  5
ADC
330
AAB
100
AcDbSymbolTableRecord
100
AcDbLinetypeTableRecord
  2
BORDER
 70
     0
  3
Border __ __ . __ __ . __ __ . __ __ . __ __ .
 72
    65
 73
     6
 40
1.75
 49
0.5
 74
     0
 49
-0.25
 74
     0
 49
0.5
 74
     0
 49
-0.25
 74
     0
 49
0.0
 74
     0
 49
-0.25
 74
     0
  0
LTYPE
  5
ADD
330
AAB
100
AcDbSymbolTableRecord
100
AcDbLinetypeTableRecord
  2
BORDER2
 70
     0
  3
Border2 __.__.__.__.__.__.__.__.__.__.__.
 72
    65
 73
     6
 40
0.875
 49
0.25
 74
     0
 49
-0.125
 74
     0
 49
0.25
 74
     0
 49
-0.125
 74
     0
 49
0.0
 74
     0
 49
-0.125
 74
     0
  0
LTYPE
  5
ADE
330
AAB
100
AcDbSymbolTableRecord
100
AcDbLinetypeTableRecord
  2
BORDERX2
 70
     0
  3
Borderx2  ____  ____  .  ____  ____  .  ___
 72
    65
 73
     6
 40
3.5
 49
1.0
 74
     0
 49
-0.5
 74
     0
 49
1.0
 74
     0
 49
-0.5
 74
     0
 49
0.0
 74
     0
 49
-0.5
 74
     0
  0
LTYPE
  5
ADF
330
AAB
100
AcDbSymbolTableRecord
100
AcDbLinetypeTableRecord
  2
CENTER2
 70
     0
  3
Center2  ___ _ ___ _ ___ _ ___ _ ___ _ ___
 72
    65
 73
     4
 40
1.125
 49
0.75
 74
     0
 49
-0.125
 74
     0
 49
0.125
 74
     0
 49
-0.125
 74
     0
  0
LTYPE
  5
AE0
330
AAB
100
AcDbSymbolTableRecord
100
AcDbLinetypeTableRecord
  2
CENTERX2
 70
     0
  3
Centerx2  ________  __  ________  __  _____
 72
    65
 73
     4
 40
4.0
 49
2.5
 74
     0
 49
-0.5
 74
     0
 49
0.5
 74
     0
 49
-0.5
 74
     0
  0
LTYPE
  5
AE1
330
AAB
100
AcDbSymbolTableRecord
100
AcDbLinetypeTableRecord
  2
DASHDOT2
 70
     0
  3
Dashdot2  _._._._._._._._._._._._._._._.
 72
    65
 73
     4
 40
0.5
 49
0.25
 74
     0
 49
-0.125
 74
     0
 49
0.0
 74
     0
 49
-0.125
 74
     0
  0
LTYPE
  5
AE2
330
AAB
100
AcDbSymbolTableRecord
100
AcDbLinetypeTableRecord
  2
DASHDOTX2
 70
     0
  3
Dashdotx2 ____  .  ____  .  ____  .  ___
 72
    65
 73
     4
 40
2.0
 49
1.0
 74
     0
 49
-0.5
 74
     0
 49
0.0
 74
     0
 49
-0.5
 74
     0
  0
LTYPE
  5
AE3
330
AAB
100
AcDbSymbolTableRecord
100
AcDbLinetypeTableRecord
  2
DASHED2
 70
     0
  3
Dashed2 _ _ _ _ _ _ _ _ _ _ _ _ _ _ _ _ _ 
 72
    65
 73
     2
 40
0.375
 49
0.25
 74
     0
 49
-0.125
 74
     0
  0
LTYPE
  5
AE4
330
AAB
100
AcDbSymbolTableRecord
100
AcDbLinetypeTableRecord
  2
DASHEDX2
 70
     0
  3
Dashedx2 ____  ____  ____  ____  ____  ___
 72
    65
 73
     2
 40
1.5
 49
1.0
 74
     0
 49
-0.5
 74
     0
  0
LTYPE
  5
AE5
330
AAB
100
AcDbSymbolTableRecord
100
AcDbLinetypeTableRecord
  2
DIVIDE
 70
     0
  3
Divide ____ . . ____ . . ____ . . ____ . . ____
 72
    65
 73
     6
 40
1.25
 49
0.5
 74
     0
 49
-0.25
 74
     0
 49
0.0
 74
     0
 49
-0.25
 74
     0
 49
0.0
 74
     0
 49
-0.25
 74
     0
  0
LTYPE
  5
AE6
330
AAB
100
AcDbSymbolTableRecord
100
AcDbLinetypeTableRecord
  2
DIVIDE2
 70
     0
  3
Divide2 __..__..__..__..__..__..__..__.._
 72
    65
 73
     6
 40
0.625
 49
0.25
 74
     0
 49
-0.125
 74
     0
 49
0.0
 74
     0
 49
-0.125
 74
     0
 49
0.0
 74
     0
 49
-0.125
 74
     0
  0
LTYPE
  5
AE7
330
AAB
100
AcDbSymbolTableRecord
100
AcDbLinetypeTableRecord
  2
DIVIDEX2
 70
     0
  3
Dividex2 ________  .  .  ________  .  .  _
 72
    65
 73
     6
 40
2.5
 49
1.0
 74
     0
 49
-0.5
 74
     0
 49
0.0
 74
     0
 49
-0.5
 74
     0
 49
0.0
 74
     0
 49
-0.5
 74
     0
  0
LTYPE
  5
AE8
330
AAB
100
AcDbSymbolTableRecord
100
AcDbLinetypeTableRecord
  2
DOT
 70
     0
  3
Dot . . . . . . . . . . . . . . . . . . . . . . . .
 72
    65
 73
     2
 40
0.25
 49
0.0
 74
     0
 49
-0.25
 74
     0
  0
LTYPE
  5
AE9
330
AAB
100
AcDbSymbolTableRecord
100
AcDbLinetypeTableRecord
  2
DOT2
 70
     0
  3
Dot2 ........................................
 72
    65
 73
     2
 40
0.125
 49
0.0
 74
     0
 49
-0.125
 74
     0
  0
LTYPE
  5
AEA
330
AAB
100
AcDbSymbolTableRecord
100
AcDbLinetypeTableRecord
  2
DOTX2
 70
     0
  3
Dotx2 .  .  .  .  .  .  .  .  .  .  .  .  .  .
 72
    65
 73
     2
 40
0.5
 49
0.0
 74
     0
 49
-0.5
 74
     0
  0
LTYPE
  5
AEB
330
AAB
100
AcDbSymbolTableRecord
100
AcDbLinetypeTableRecord
  2
HIDDENX2
 70
     0
  3
Hiddenx2 ____ ____ ____ ____ ____ ____ ____ 
 72
    65
 73
     2
 40
0.75
 49
0.5
 74
     0
 49
-0.25
 74
     0
  0
LTYPE
  5
AEC
330
AAB
100
AcDbSymbolTableRecord
100
AcDbLinetypeTableRecord
  2
PHANTOM
 70
     0
  3
Phantom ______  __  __  ______  __  __  ______ 
 72
    65
 73
     6
 40
2.5
 49
1.25
 74
     0
 49
-0.25
 74
     0
 49
0.25
 74
     0
 49
-0.25
 74
     0
 49
0.25
 74
     0
 49
-0.25
 74
     0
  0
LTYPE
  5
AED
330
AAB
100
AcDbSymbolTableRecord
100
AcDbLinetypeTableRecord
  2
PHANTOM2
 70
     0
  3
Phantom2 ___ _ _ ___ _ _ ___ _ _ ___ _ _
 72
    65
 73
     6
 40
1.25
 49
0.625
 74
     0
 49
-0.125
 74
     0
 49
0.125
 74
     0
 49
-0.125
 74
     0
 49
0.125
 74
     0
 49
-0.125
 74
     0
  0
LTYPE
  5
AEE
330
AAB
100
AcDbSymbolTableRecord
100
AcDbLinetypeTableRecord
  2
PHANTOMX2
 70
     0
  3
Phantomx2 ____________    ____    ____   _
 72
    65
 73
     6
 40
5.0
 49
2.5
 74
     0
 49
-0.5
 74
     0
 49
0.5
 74
     0
 49
-0.5
 74
     0
 49
0.5
 74
     0
 49
-0.5
 74
     0
  0
ENDTAB
  0
TABLE
  2
LAYER
  5
AA8
330
0
100
AcDbSymbolTable
 70
     6
  0
LAYER
  5
AB6
330
AA8
100
AcDbSymbolTableRecord
100
AcDbLayerTableRecord
  2
0
 70
     0
 62
     7
  6
CONTINUOUS
  0
LAYER
  5
2E
330
AA8
100
AcDbSymbolTableRecord
100
AcDbLayerTableRecord
  2
DEFPOINTS
 70
     0
 62
     7
  6
CONTINUOUS
  0
LAYER
  5
4E
330
AA8
100
AcDbSymbolTableRecord
100
AcDbLayerTableRecord
  2
V0-OBRYS
 70
     0
 62
    90
  6
CONTINUOUS
  0
LAYER
  5
24
330
AA8
100
AcDbSymbolTableRecord
100
AcDbLayerTableRecord
  2
V0-VYPLNE
 70
     0
 62
    52
  6
CONTINUOUS
  0
LAYER
  5
91
330
AA8
100
AcDbSymbolTableRecord
100
AcDbLayerTableRecord
  2
V0-NAZVY
 70
     0
 62
   210
  6
CONTINUOUS
  0
LAYER
  5
FE
330
AA8
100
AcDbSymbolTableRecord
100
AcDbLayerTableRecord
  2
V0-ZBYTEK
 70
     0
 62
    51
  6
CONTINUOUS
  0
ENDTAB
  0
TABLE
  2
STYLE
  5
AA9
330
0
100
AcDbSymbolTable
 70
     7
  0
STYLE
  5
AB7
330
AA9
100
AcDbSymbolTableRecord
100
AcDbTextStyleTableRecord
  2
STANDARD
 70
     0
 40
0.0
 41
1.0
 50
0.0
 71
     0
 42
0.2
  3
ISOCP.shx
  4

1001
ACAD
1000
ISOCP.shx
1071
        0
  0
STYLE
  5
2F3
330
AA9
100
AcDbSymbolTableRecord
100
AcDbTextStyleTableRecord
  2
ED30
 70
     0
 40
30.0
 41
1.0
 50
0.0
 71
     0
 42
0.2
  3
ISOCP.shx
  4

1001
ACAD
1000
ISOCP.shx
1071
        0
  0
STYLE
  5
2F4
330
AA9
100
AcDbSymbolTableRecord
100
AcDbTextStyleTableRecord
  2
ED20
 70
     0
 40
20.0
 41
1.0
 50
0.0
 71
     0
 42
0.2
  3
isocp.shx
  4

1001
ACAD
1000
isocp.shx
1071
        0
  0
STYLE
  5
2F5
330
AA9
100
AcDbSymbolTableRecord
100
AcDbTextStyleTableRecord
  2
ED40
 70
     0
 40
40.0
 41
1.0
 50
0.0
 71
     0
 42
0.2
  3
isocp.shx
  4

1001
ACAD
1000
isocp.shx
1071
        0
  0
STYLE
  5
2F6
330
AA9
100
AcDbSymbolTableRecord
100
AcDbTextStyleTableRecord
  2
ED10
 70
     0
 40
10.0
 41
1.0
 50
0.0
 71
     0
 42
0.2
  3
isocp.shx
  4

1001
ACAD
1000
isocp.shx
1071
        0
  0
STYLE
  5
2F7
330
AA9
100
AcDbSymbolTableRecord
100
AcDbTextStyleTableRecord
  2
VD_RECOV_1_2F7_
 70
     0
 40
0.0
 41
1.0
 50
0.0
 71
     0
 42
0.2
  3
ltypeshp.shx
  4

1001
ACAD
1000
ltypeshp.shx
1071
        0
  0
STYLE
  5
415
330
AA9
100
AcDbSymbolTableRecord
100
AcDbTextStyleTableRecord
  2
ED5
 70
     0
 40
10.0
 41
1.0
 50
0.0
 71
     0
 42
0.2
  3
ISOCP.shx
  4

1001
ACAD
1000
ISOCP.shx
1071
        0
  0
ENDTAB
  0
TABLE
  2
VIEW
  5
AAC
330
0
100
AcDbSymbolTable
 70
     0
  0
ENDTAB
  0
TABLE
  2
UCS
  5
AAD
330
0
100
AcDbSymbolTable
 70
     0
  0
ENDTAB
  0
TABLE
  2
APPID
  5
AAF
330
0
100
AcDbSymbolTable
 70
     6
  0
APPID
  5
AB8
330
AAF
100
AcDbSymbolTableRecord
100
AcDbRegAppTableRecord
  2
ACAD
 70
     0
  0
APPID
  5
AD0
330
AAF
100
AcDbSymbolTableRecord
100
AcDbRegAppTableRecord
  2
VD_INVISIBLE_NOT_FOR_READ
 70
     0
  0
APPID
  5
AD1
330
AAF
100
AcDbSymbolTableRecord
100
AcDbRegAppTableRecord
  2
VD_TEMPHATCH
 70
     0
  0
APPID
  5
AD2
330
AAF
100
AcDbSymbolTableRecord
100
AcDbRegAppTableRecord
  2
VDEXTRAPARAM
 70
     0
  0
APPID
  5
AD3
330
AAF
100
AcDbSymbolTableRecord
100
AcDbRegAppTableRecord
  2
PE_URL
 70
     0
  0
APPID
  5
AD4
330
AAF
100
AcDbSymbolTableRecord
100
AcDbRegAppTableRecord
  2
VD_UNKNOWN
 70
     0
  0
ENDTAB
  0
TABLE
  2
DIMSTYLE
  5
AB0
330
0
100
AcDbSymbolTable
 70
     6
  0
DIMSTYLE
105
ACD
330
AB0
100
AcDbSymbolTableRecord
100
AcDbDimStyleTableRecord
  2
STANDARD
 70
     0
  3

  4

  5
OPEN
  6

  7

 40
5.0
 41
3.5
 42
0.0625
 43
0.38
 44
0.18
 45
0.0
 46
0.0
 47
0.0
 48
0.0
140
3.5
141
0.09
142
0.0
143
25.4
144
1.0
145
0.0
146
1.0
147
0.625
 71
     0
 72
     0
 73
     0
 74
     0
 75
     0
 76
     0
 77
     1
 78
     0
170
     0
171
     2
172
     1
173
     0
174
     1
175
     0
176
     0
177
     0
178
     0
270
     2
271
     0
272
     4
273
     2
274
     2
340
AB7
275
     0
280
     0
281
     0
282
     0
283
     1
284
     0
285
     0
286
     0
287
     3
288
     1
  0
DIMSTYLE
105
2F8
330
AB0
100
AcDbSymbolTableRecord
100
AcDbDimStyleTableRecord
  2
ED30
 70
     0
  3

  4

  5
OPEN
  6

  7

 40
1.0
 41
25.0
 42
1.0
 43
0.38
 44
1.25
 45
0.0
 46
0.0
 47
0.0
 48
0.0
140
30.0
141
0.09
142
0.0
143
25.4
144
1.0
145
0.0
146
1.0
147
2.0
 71
     0
 72
     0
 73
     0
 74
     0
 75
     0
 76
     0
 77
     1
 78
     0
170
     0
171
     2
172
     1
173
     0
174
     1
175
     0
176
     0
177
     0
178
     0
270
     2
271
     0
272
     4
273
     2
274
     2
340
2F3
275
     0
280
     0
281
     0
282
     0
283
     1
284
     0
285
     0
286
     0
287
     3
288
     1
  0
DIMSTYLE
105
2F9
330
AB0
100
AcDbSymbolTableRecord
100
AcDbDimStyleTableRecord
  2
ED40
 70
     0
  3

  4

  5
OPEN
  6

  7

 40
1.0
 41
35.0
 42
1.0
 43
0.38
 44
1.25
 45
0.0
 46
0.0
 47
0.0
 48
0.0
140
40.0
141
0.09
142
0.0
143
25.4
144
1.0
145
0.0
146
1.0
147
3.0
 71
     0
 72
     0
 73
     0
 74
     0
 75
     0
 76
     0
 77
     1
 78
     0
170
     0
171
     2
172
     1
173
     0
174
     1
175
     0
176
     0
177
     0
178
     0
270
     2
271
     0
272
     4
273
     2
274
     2
340
2F5
275
     0
280
     0
281
     0
282
     0
283
     1
284
     0
285
     0
286
     0
287
     3
288
     1
  0
DIMSTYLE
105
2FA
330
AB0
100
AcDbSymbolTableRecord
100
AcDbDimStyleTableRecord
  2
ED20
 70
     0
  3

  4

  5
OPEN
  6

  7

 40
1.0
 41
20.0
 42
1.0
 43
0.38
 44
1.25
 45
0.0
 46
0.0
 47
0.0
 48
0.0
140
20.0
141
0.09
142
0.0
143
25.4
144
1.0
145
0.0
146
1.0
147
1.5
 71
     0
 72
     0
 73
     0
 74
     0
 75
     0
 76
     0
 77
     1
 78
     0
170
     0
171
     2
172
     1
173
     0
174
     1
175
     0
176
     0
177
     0
178
     0
270
     2
271
     0
272
     4
273
     2
274
     2
340
2F4
275
     0
280
     0
281
     0
282
     0
283
     1
284
     0
285
     0
286
     0
287
     3
288
     1
  0
DIMSTYLE
105
2FB
330
AB0
100
AcDbSymbolTableRecord
100
AcDbDimStyleTableRecord
  2
ED10
 70
     0
  3

  4

  5
OPEN
  6

  7

 40
1.0
 41
15.0
 42
1.0
 43
0.38
 44
1.25
 45
0.0
 46
0.0
 47
0.0
 48
0.0
140
10.0
141
0.09
142
0.0
143
25.4
144
1.0
145
0.0
146
1.0
147
1.5
 71
     0
 72
     0
 73
     0
 74
     0
 75
     0
 76
     0
 77
     1
 78
     0
170
     0
171
     2
172
     1
173
     0
174
     1
175
     0
176
     0
177
     0
178
     0
270
     2
271
     0
272
     4
273
     2
274
     2
340
2F4
275
     0
280
     0
281
     0
282
     0
283
     1
284
     0
285
     0
286
     0
287
     3
288
     1
  0
DIMSTYLE
105
417
102
{ACAD_REACTORS
330
3EF
330
409
330
6A4
330
85B
330
868
102
}
330
AB0
100
AcDbSymbolTableRecord
100
AcDbDimStyleTableRecord
  2
ED5
 70
     0
  3

  4

  5
OPEN
  6

  7

 40
1.0
 41
12.0
 42
1.0
 43
0.38
 44
1.25
 45
0.0
 46
0.0
 47
0.0
 48
0.0
140
10.0
141
0.09
142
0.0
143
25.4
144
1.0
145
0.0
146
1.0
147
1.5
 71
     0
 72
     0
 73
     0
 74
     0
 75
     0
 76
     0
 77
     1
 78
     0
170
     0
171
     2
172
     1
173
     0
174
     1
175
     0
176
     0
177
     0
178
     0
270
     2
271
     0
272
     4
273
     2
274
     2
340
415
275
     0
280
     0
281
     0
282
     0
283
     1
284
     0
285
     0
286
     0
287
     3
288
     1
  0
ENDTAB
  0
TABLE
  2
BLOCK_RECORD
  5
AA7
330
0
100
AcDbSymbolTable
 70
    10
  0
BLOCK_RECORD
  5
AC5
330
AA7
100
AcDbSymbolTableRecord
100
AcDbBlockTableRecord
  2
*MODEL_SPACE
  0
BLOCK_RECORD
  5
AC1
330
AA7
100
AcDbSymbolTableRecord
100
AcDbBlockTableRecord
  2
*PAPER_SPACE
  0
BLOCK_RECORD
  5
1D
330
AA7
100
AcDbSymbolTableRecord
100
AcDbBlockTableRecord
  2
_OPEN
  0
BLOCK_RECORD
  5
213
330
AA7
100
AcDbSymbolTableRecord
100
AcDbBlockTableRecord
  2
A20_350
  0
BLOCK_RECORD
  5
AA3
330
AA7
100
AcDbSymbolTableRecord
100
AcDbBlockTableRecord
  2
VDDIM_DEFAULT
  0
BLOCK_RECORD
  5
AA5
330
AA7
100
AcDbSymbolTableRecord
100
AcDbBlockTableRecord
  2
VDDIM_NONE
  0
BLOCK_RECORD
  5
AF8
330
AA7
100
AcDbSymbolTableRecord
100
AcDbBlockTableRecord
  2
*D5
  0
BLOCK_RECORD
  5
B04
330
AA7
100
AcDbSymbolTableRecord
100
AcDbBlockTableRecord
  2
*D6
  0
BLOCK_RECORD
  5
B11
330
AA7
100
AcDbSymbolTableRecord
100
AcDbBlockTableRecord
  2
*D7
  0
BLOCK_RECORD
  5
B1D
330
AA7
100
AcDbSymbolTableRecord
100
AcDbBlockTableRecord
  2
*D8
  0
BLOCK_RECORD
  5
B29
330
AA7
100
AcDbSymbolTableRecord
100
AcDbBlockTableRecord
  2
*D9
  0
ENDTAB
  0
ENDSEC
  0
SECTION
  2
BLOCKS
  0
BLOCK
  5
AC6
330
AC5
100
AcDbEntity
  8
0
100
AcDbBlockBegin
  2
*MODEL_SPACE
 70
     0
 71
     0
 10
0.0
 20
0.0
 30
0.0
  3
*MODEL_SPACE
  1

  0
ENDBLK
  5
AC7
330
AC5
100
AcDbEntity
  8
0
100
AcDbBlockEnd
  0
BLOCK
  5
AC2
330
AC1
100
AcDbEntity
 67
     1
  8
0
100
AcDbBlockBegin
  2
*PAPER_SPACE
 70
     0
 71
     0
 10
0.0
 20
0.0
 30
0.0
  3
*PAPER_SPACE
  1

  0
ENDBLK
  5
AC3
330
AC1
100
AcDbEntity
 67
     1
  8
0
100
AcDbBlockEnd
  0
BLOCK
  5
AEF
330
1D
100
AcDbEntity
  8
0
100
AcDbBlockBegin
  2
_OPEN
 70
     0
 71
     0
 10
0.0
 20
0.0
 30
0.0
  3
_OPEN
  1

  0
LINE
  5
1E
330
1D
100
AcDbEntity
  8
0
  6
BYBLOCK
 62
     0
100
AcDbLine
 10
-1.0
 20
0.166667
 30
0.0
 11
0.0
 21
0.0
 31
0.0
  0
LINE
  5
1F
330
1D
100
AcDbEntity
  8
0
  6
BYBLOCK
 62
     0
100
AcDbLine
 10
0.0
 20
0.0
 30
0.0
 11
-1.0
 21
-0.166667
 31
0.0
  0
LINE
  5
20
330
1D
100
AcDbEntity
  8
0
  6
BYBLOCK
 62
     0
100
AcDbLine
 10
0.0
 20
0.0
 30
0.0
 11
-1.0
 21
0.0
 31
0.0
  0
ENDBLK
  5
AF0
330
1D
100
AcDbEntity
  8
0
100
AcDbBlockEnd
  0
BLOCK
  5
AF1
330
213
100
AcDbEntity
  8
0
100
AcDbBlockBegin
  2
A20_350
 70
     0
 71
     0
 10
0.0
 20
0.0
 30
0.0
  3
A20_350
  1

  0
ENDBLK
  5
AF2
330
213
100
AcDbEntity
  8
0
100
AcDbBlockEnd
  0
BLOCK
  5
AF3
330
AA3
100
AcDbEntity
  8
0
100
AcDbBlockBegin
  2
VDDIM_DEFAULT
 70
     0
 71
     0
 10
0.0
 20
0.0
 30
0.0
  3
VDDIM_DEFAULT
  1

  0
LWPOLYLINE
  5
AA4
330
AA3
100
AcDbEntity
  8
0
  6
CONTINUOUS
 62
     0
100
AcDbPolyline
 90
        4
 70
     0
 43
0.0
 10
0.0
 20
0.0
 10
-1.0
 20
-0.1665
 10
-1.0
 20
0.1665
 10
0.0
 20
0.0
1001
VDEXTRAPARAM
1071
        1
1071
        0
1071
        0
1040
1.0
1000

1000

1040
0.0
1040
0.0
  0
HATCH
  5
AF7
330
AA3
100
AcDbEntity
  8
0
  6
CONTINUOUS
 62
     0
100
AcDbHatch
 10
0.0
 20
0.0
 30
0.0
210
0.0
220
0.0
230
1.0
  2
SOLID
 70
     1
 71
     0
 91
        1
 92
        2
 72
     0
 73
     1
 93
        3
 10
0.0
 20
0.0
 10
-1.0
 20
-0.1665
 10
-1.0
 20
0.1665
 97
        0
 75
     0
 76
     1
 98
        1
 10
0.0
 20
0.0
1001
VDEXTRAPARAM
1071
        1
1071
        0
1071
        0
1040
1.0
1000

1000

1040
0.0
1040
0.0
1001
VD_TEMPHATCH
1000
VD_TEMPHATCH
  0
ENDBLK
  5
AF4
330
AA3
100
AcDbEntity
  8
0
100
AcDbBlockEnd
  0
BLOCK
  5
AF5
330
AA5
100
AcDbEntity
  8
0
100
AcDbBlockBegin
  2
VDDIM_NONE
 70
     0
 71
     0
 10
0.0
 20
0.0
 30
0.0
  3
VDDIM_NONE
  1

  0
ENDBLK
  5
AF6
330
AA5
100
AcDbEntity
  8
0
100
AcDbBlockEnd
  0
BLOCK
  5
B02
330
AF8
100
AcDbEntity
  8
0
100
AcDbBlockBegin
  2
*D5
 70
     1
 71
     0
 10
0.0
 20
0.0
 30
0.0
  3
*D5
  1

  0
LINE
  5
AF9
330
AF8
100
AcDbEntity
  8
V0-VYPLNE
 62
     0
100
AcDbLine
 10
50.486404
 20
75.303448
 30
0.0
 11
50.486404
 21
90.68938599999997
 31
0.0
  0
LINE
  5
AFA
330
AF8
100
AcDbEntity
  8
V0-VYPLNE
 62
     0
100
AcDbLine
 10
105.857204
 20
47.819898
 30
0.0
 11
105.857204
 21
90.68938599999997
 31
0.0
  0
LINE
  5
AFB
330
AF8
100
AcDbEntity
  8
V0-VYPLNE
 62
     0
100
AcDbLine
 10
62.486404
 20
89.43938599999997
 30
0.0
 11
93.857204
 21
89.43938599999997
 31
0.0
  0
INSERT
  5
AFC
330
AF8
100
AcDbEntity
  8
V0-VYPLNE
 62
     0
100
AcDbBlockReference
  2
_OPEN
 10
50.486404
 20
89.43938599999997
 30
0.0
 41
12.0
 42
12.0
 43
12.0
 50
180.0
  0
INSERT
  5
AFD
330
AF8
100
AcDbEntity
  8
V0-VYPLNE
 62
     0
100
AcDbBlockReference
  2
_OPEN
 10
105.857204
 20
89.43938599999997
 30
0.0
 41
12.0
 42
12.0
 43
12.0
  0
MTEXT
  5
AFE
330
AF8
100
AcDbEntity
  8
V0-VYPLNE
 62
     0
100
AcDbMText
 10
78.17180400000001
 20
95.93938599999997
 30
0.0
 40
10.0
 41
0.0
 71
     5
 72
     1
  1
\A1;55
  7
ED5
  0
POINT
  5
AFF
330
AF8
100
AcDbEntity
  8
DEFPOINTS
 62
     0
100
AcDbPoint
 10
50.486404
 20
74.303448
 30
0.0
  0
POINT
  5
B00
330
AF8
100
AcDbEntity
  8
DEFPOINTS
 62
     0
100
AcDbPoint
 10
105.857204
 20
46.819898
 30
0.0
  0
POINT
  5
B01
330
AF8
100
AcDbEntity
  8
DEFPOINTS
 62
     0
100
AcDbPoint
 10
105.857204
 20
89.43938599999997
 30
0.0
  0
ENDBLK
  5
B03
330
AF8
100
AcDbEntity
  8
0
100
AcDbBlockEnd
  0
BLOCK
  5
B0F
330
B04
100
AcDbEntity
  8
0
100
AcDbBlockBegin
  2
*D6
 70
     1
 71
     0
 10
0.0
 20
0.0
 30
0.0
  3
*D6
  1

  0
LINE
  5
B05
330
B04
100
AcDbEntity
  8
V0-VYPLNE
 62
     0
100
AcDbLine
 10
106.857204
 20
45.851198
 30
0.0
 11
129.0252119999996
 21
45.851198
 31
0.0
  0
LINE
  5
B06
330
B04
100
AcDbEntity
  8
V0-VYPLNE
 62
     0
100
AcDbLine
 10
106.857204
 20
-51.736302
 30
0.0
 11
129.0252119999996
 21
-51.736302
 31
0.0
  0
LINE
  5
B07
330
B04
100
AcDbEntity
  8
V0-VYPLNE
 62
     0
100
AcDbLine
 10
127.7752119999996
 20
33.85119800000001
 30
0.0
 11
127.7752119999996
 21
13.35319861904761
 31
0.0
  0
LINE
  5
B08
330
B04
100
AcDbEntity
  8
V0-VYPLNE
 62
     0
100
AcDbLine
 10
127.7752119999995
 20
-39.736302
 30
0.0
 11
127.7752119999996
 21
-14.88489661904761
 31
0.0
  0
INSERT
  5
B09
330
B04
100
AcDbEntity
  8
V0-VYPLNE
 62
     0
100
AcDbBlockReference
  2
_OPEN
 10
127.7752119999996
 20
45.85119800000001
 30
0.0
 41
12.0
 42
12.0
 43
12.0
 50
90.0
  0
INSERT
  5
B0A
330
B04
100
AcDbEntity
  8
V0-VYPLNE
 62
     0
100
AcDbBlockReference
  2
_OPEN
 10
127.7752119999995
 20
-51.736302
 30
0.0
 41
12.0
 42
12.0
 43
12.0
 50
270.0
  0
MTEXT
  5
B0B
330
B04
100
AcDbEntity
  8
V0-VYPLNE
 62
     0
100
AcDbMText
 10
127.775212
 20
-0.765849
 30
0.0
 40
10.0
 41
0.0
 71
     5
 72
     1
  1
%%c\A1;98
  7
ED5
 11
0.0
 21
1.0
 31
0.0
  0
POINT
  5
B0C
330
B04
100
AcDbEntity
  8
DEFPOINTS
 62
     0
100
AcDbPoint
 10
105.857204
 20
45.851198
 30
0.0
  0
POINT
  5
B0D
330
B04
100
AcDbEntity
  8
DEFPOINTS
 62
     0
100
AcDbPoint
 10
105.857204
 20
-51.736302
 30
0.0
  0
POINT
  5
B0E
330
B04
100
AcDbEntity
  8
DEFPOINTS
 62
     0
100
AcDbPoint
 10
127.7752119999996
 20
-51.736302
 30
0.0
  0
ENDBLK
  5
B10
330
B04
100
AcDbEntity
  8
0
100
AcDbBlockEnd
  0
BLOCK
  5
B1B
330
B11
100
AcDbEntity
  8
0
100
AcDbBlockBegin
  2
*D7
 70
     1
 71
     0
 10
0.0
 20
0.0
 30
0.0
  3
*D7
  1

  0
LINE
  5
B12
330
B11
100
AcDbEntity
  8
V0-VYPLNE
 62
     0
100
AcDbLine
 10
8.360913
 20
75.303448
 30
0.0
 11
8.360912999999982
 21
107.858490999999
 31
0.0
  0
LINE
  5
B13
330
B11
100
AcDbEntity
  8
V0-VYPLNE
 62
     0
100
AcDbLine
 10
105.857204
 20
46.851198
 30
0.0
 11
105.857204
 21
107.858490999999
 31
0.0
  0
LINE
  5
B14
330
B11
100
AcDbEntity
  8
V0-VYPLNE
 62
     0
100
AcDbLine
 10
20.36091299999998
 20
106.608490999999
 30
0.0
 11
93.857204
 21
106.608490999999
 31
0.0
  0
INSERT
  5
B15
330
B11
100
AcDbEntity
  8
V0-VYPLNE
 62
     0
100
AcDbBlockReference
  2
_OPEN
 10
8.360912999999982
 20
106.608490999999
 30
0.0
 41
12.0
 42
12.0
 43
12.0
 50
180.0
  0
INSERT
  5
B16
330
B11
100
AcDbEntity
  8
V0-VYPLNE
 62
     0
100
AcDbBlockReference
  2
_OPEN
 10
105.857204
 20
106.608490999999
 30
0.0
 41
12.0
 42
12.0
 43
12.0
  0
MTEXT
  5
B17
330
B11
100
AcDbEntity
  8
V0-VYPLNE
 62
     0
100
AcDbMText
 10
57.1090585
 20
113.108490999999
 30
0.0
 40
10.0
 41
0.0
 71
     5
 72
     1
  1
\A1;97
  7
ED5
  0
POINT
  5
B18
330
B11
100
AcDbEntity
  8
DEFPOINTS
 62
     0
100
AcDbPoint
 10
8.360913
 20
74.303448
 30
0.0
  0
POINT
  5
B19
330
B11
100
AcDbEntity
  8
DEFPOINTS
 62
     0
100
AcDbPoint
 10
105.857204
 20
45.851198
 30
0.0
  0
POINT
  5
B1A
330
B11
100
AcDbEntity
  8
DEFPOINTS
 62
     0
100
AcDbPoint
 10
105.857204
 20
106.608490999999
 30
0.0
  0
ENDBLK
  5
B1C
330
B11
100
AcDbEntity
  8
0
100
AcDbBlockEnd
  0
BLOCK
  5
B27
330
B1D
100
AcDbEntity
  8
0
100
AcDbBlockBegin
  2
*D8
 70
     1
 71
     0
 10
0.0
 20
0.0
 30
0.0
  3
*D8
  1

  0
LINE
  5
B1E
330
B1D
100
AcDbEntity
  8
V0-VYPLNE
 62
     0
100
AcDbLine
 10
181.900007
 20
74.284074
 30
0.0
 11
153.6764669999993
 21
74.28407400000002
 31
0.0
  0
LINE
  5
B1F
330
B1D
100
AcDbEntity
  8
V0-VYPLNE
 62
     0
100
AcDbLine
 10
181.900007
 20
-80.669178
 30
0.0
 11
153.6764669999993
 21
-80.669178
 31
0.0
  0
LINE
  5
B20
330
B1D
100
AcDbEntity
  8
V0-VYPLNE
 62
     0
100
AcDbLine
 10
154.9264669999993
 20
62.28407400000003
 30
0.0
 11
154.9264669999993
 21
-68.66917799999999
 31
0.0
  0
INSERT
  5
B21
330
B1D
100
AcDbEntity
  8
V0-VYPLNE
 62
     0
100
AcDbBlockReference
  2
_OPEN
 10
154.9264669999993
 20
74.28407400000003
 30
0.0
 41
12.0
 42
12.0
 43
12.0
 50
90.0
  0
INSERT
  5
B22
330
B1D
100
AcDbEntity
  8
V0-VYPLNE
 62
     0
100
AcDbBlockReference
  2
_OPEN
 10
154.9264669999993
 20
-80.66917799999999
 30
0.0
 41
12.0
 42
12.0
 43
12.0
 50
270.0
  0
MTEXT
  5
B23
330
B1D
100
AcDbEntity
  8
V0-VYPLNE
 62
     0
100
AcDbMText
 10
148.4264669999993
 20
-3.192551999999992
 30
0.0
 40
10.0
 41
0.0
 71
     5
 72
     1
  1
\A1;155
  7
ED5
 11
0.0
 21
1.0
 31
0.0
  0
POINT
  5
B24
330
B1D
100
AcDbEntity
  8
DEFPOINTS
 62
     0
100
AcDbPoint
 10
182.900007
 20
74.284074
 30
0.0
  0
POINT
  5
B25
330
B1D
100
AcDbEntity
  8
DEFPOINTS
 62
     0
100
AcDbPoint
 10
182.900007
 20
-80.669178
 30
0.0
  0
POINT
  5
B26
330
B1D
100
AcDbEntity
  8
DEFPOINTS
 62
     0
100
AcDbPoint
 10
154.9264669999993
 20
-80.669178
 30
0.0
  0
ENDBLK
  5
B28
330
B1D
100
AcDbEntity
  8
0
100
AcDbBlockEnd
  0
BLOCK
  5
B33
330
B29
100
AcDbEntity
  8
0
100
AcDbBlockBegin
  2
*D9
 70
     1
 71
     0
 10
0.0
 20
0.0
 30
0.0
  3
*D9
  1

  0
LINE
  5
B2A
330
B29
100
AcDbEntity
  8
V0-VYPLNE
 62
     0
100
AcDbLine
 10
172.900007
 20
-71.669178
 30
0.0
 11
172.900007
 21
-102.5230170000068
 31
0.0
  0
LINE
  5
B2B
330
B29
100
AcDbEntity
  8
V0-VYPLNE
 62
     0
100
AcDbLine
 10
327.853259
 20
-71.669178
 30
0.0
 11
327.853259
 21
-102.5230170000068
 31
0.0
  0
LINE
  5
B2C
330
B29
100
AcDbEntity
  8
V0-VYPLNE
 62
     0
100
AcDbLine
 10
184.900007
 20
-101.2730170000068
 30
0.0
 11
315.853259
 21
-101.2730170000068
 31
0.0
  0
INSERT
  5
B2D
330
B29
100
AcDbEntity
  8
V0-VYPLNE
 62
     0
100
AcDbBlockReference
  2
_OPEN
 10
172.900007
 20
-101.2730170000068
 30
0.0
 41
12.0
 42
12.0
 43
12.0
 50
180.0
  0
INSERT
  5
B2E
330
B29
100
AcDbEntity
  8
V0-VYPLNE
 62
     0
100
AcDbBlockReference
  2
_OPEN
 10
327.853259
 20
-101.2730170000068
 30
0.0
 41
12.0
 42
12.0
 43
12.0
 50
360.0
  0
MTEXT
  5
B2F
330
B29
100
AcDbEntity
  8
V0-VYPLNE
 62
     0
100
AcDbMText
 10
250.376633
 20
-94.7730170000068
 30
0.0
 40
10.0
 41
0.0
 71
     5
 72
     1
  1
\A1;155
  7
ED5
  0
POINT
  5
B30
330
B29
100
AcDbEntity
  8
DEFPOINTS
 62
     0
100
AcDbPoint
 10
172.900007
 20
-70.669178
 30
0.0
  0
POINT
  5
B31
330
B29
100
AcDbEntity
  8
DEFPOINTS
 62
     0
100
AcDbPoint
 10
327.853259
 20
-70.669178
 30
0.0
  0
POINT
  5
B32
330
B29
100
AcDbEntity
  8
DEFPOINTS
 62
     0
100
AcDbPoint
 10
327.853259
 20
-101.2730170000068
 30
0.0
  0
ENDBLK
  5
B34
330
B29
100
AcDbEntity
  8
0
100
AcDbBlockEnd
  0
ENDSEC
  0
SECTION
  2
ENTITIES
  0
LINE
  5
197
330
AC5
100
AcDbEntity
  8
V0-VYPLNE
  6
DASHDOT
 62
    63
100
AcDbLine
 10
-11.167696
 20
-3.192552
 30
0.0
 11
111.669404
 21
-3.192552
 31
0.0
  0
LINE
  5
199
330
AC5
100
AcDbEntity
  8
V0-OBRYS
  6
CONTINUOUS
 62
    90
 48
5.0
100
AcDbLine
 10
16.517195
 20
-80.688552
 30
0.0
 11
50.486404
 21
-80.688552
 31
0.0
  0
LINE
  5
19A
330
AC5
100
AcDbEntity
  8
V0-OBRYS
  6
CONTINUOUS
 62
    90
 48
5.0
100
AcDbLine
 10
50.486404
 20
-80.688552
 30
0.0
 11
50.486404
 21
74.30344800000002
 31
0.0
  0
LINE
  5
19B
330
AC5
100
AcDbEntity
  8
V0-OBRYS
  6
CONTINUOUS
 62
    90
 48
5.0
100
AcDbLine
 10
50.486404
 20
74.303448
 30
0.0
 11
16.517195
 21
74.303448
 31
0.0
  0
LINE
  5
1AC
330
AC5
100
AcDbEntity
  8
V0-OBRYS
  6
CONTINUOUS
 62
    90
 48
5.0
100
AcDbLine
 10
50.486404
 20
45.851198
 30
0.0
 11
105.857204
 21
45.851198
 31
0.0
  0
LINE
  5
1AD
330
AC5
100
AcDbEntity
  8
V0-OBRYS
  6
CONTINUOUS
 62
    90
 48
5.0
100
AcDbLine
 10
105.857204
 20
45.851198
 30
0.0
 11
105.857204
 21
-51.73630200000001
 31
0.0
  0
LINE
  5
1AE
330
AC5
100
AcDbEntity
  8
V0-OBRYS
  6
CONTINUOUS
 62
    90
 48
5.0
100
AcDbLine
 10
105.857204
 20
-51.736302
 30
0.0
 11
50.486404
 21
-51.736302
 31
0.0
  0
LINE
  5
1C0
330
AC5
100
AcDbEntity
  8
V0-OBRYS
  6
CONTINUOUS
 62
    90
100
AcDbLine
 10
187.630408
 20
40.544253
 30
0.0
 11
313.122858
 21
40.544253
 31
0.0
  0
LINE
  5
1C1
330
AC5
100
AcDbEntity
  8
V0-OBRYS
  6
CONTINUOUS
 62
    90
100
AcDbLine
 10
215.387189
 20
34.296138
 30
0.0
 11
215.454197
 21
34.296138
 31
0.0
  0
LINE
  5
1C2
330
AC5
100
AcDbEntity
  8
V0-OBRYS
  6
CONTINUOUS
 62
    90
100
AcDbLine
 10
187.630408
 20
28.048023
 30
0.0
 11
313.122858
 21
28.048023
 31
0.0
  0
LINE
  5
1C3
330
AC5
100
AcDbEntity
  8
V0-OBRYS
  6
CONTINUOUS
 62
    90
100
AcDbLine
 10
187.630408
 20
21.799908
 30
0.0
 11
313.122858
 21
21.799908
 31
0.0
  0
LINE
  5
1C4
330
AC5
100
AcDbEntity
  8
V0-OBRYS
  6
CONTINUOUS
 62
    90
100
AcDbLine
 10
187.630408
 20
16.801416
 30
0.0
 11
313.122858
 21
16.801416
 31
0.0
  0
LINE
  5
1C5
330
AC5
100
AcDbEntity
  8
V0-OBRYS
  6
CONTINUOUS
 62
    90
100
AcDbLine
 10
187.630408
 20
11.802924
 30
0.0
 11
313.122858
 21
11.802924
 31
0.0
  0
LINE
  5
1C6
330
AC5
100
AcDbEntity
  8
V0-OBRYS
  6
CONTINUOUS
 62
    90
100
AcDbLine
 10
187.630408
 20
6.804432
 30
0.0
 11
313.122858
 21
6.804432
 31
0.0
  0
LINE
  5
1C7
330
AC5
100
AcDbEntity
  8
V0-OBRYS
  6
CONTINUOUS
 62
    90
100
AcDbLine
 10
187.630408
 20
1.80594
 30
0.0
 11
313.122858
 21
1.80594
 31
0.0
  0
LINE
  5
1C8
330
AC5
100
AcDbEntity
  8
V0-OBRYS
  6
CONTINUOUS
 62
    90
100
AcDbLine
 10
187.630408
 20
-3.192552
 30
0.0
 11
313.122858
 21
-3.192552
 31
0.0
  0
LINE
  5
1C9
330
AC5
100
AcDbEntity
  8
V0-OBRYS
  6
CONTINUOUS
 62
    90
100
AcDbLine
 10
187.630408
 20
34.296138
 30
0.0
 11
313.122858
 21
34.296138
 31
0.0
  0
LINE
  5
1D2
330
AC5
100
AcDbEntity
  8
V0-OBRYS
  6
CONTINUOUS
 62
    90
100
AcDbLine
 10
206.14209
 20
45.542745
 30
0.0
 11
294.611176
 21
45.542745
 31
0.0
  0
LINE
  5
1D3
330
AC5
100
AcDbEntity
  8
V0-OBRYS
  6
CONTINUOUS
 62
    90
100
AcDbLine
 10
206.14209
 20
-51.927849
 30
0.0
 11
294.611176
 21
-51.927849
 31
0.0
  0
LINE
  5
1D4
330
AC5
100
AcDbEntity
  8
V0-OBRYS
  6
CONTINUOUS
 62
    90
100
AcDbLine
 10
187.630408
 20
-40.681242
 30
0.0
 11
313.122858
 21
-40.681242
 31
0.0
  0
LINE
  5
1D5
330
AC5
100
AcDbEntity
  8
V0-OBRYS
  6
CONTINUOUS
 62
    90
100
AcDbLine
 10
187.630408
 20
-28.185012
 30
0.0
 11
313.122858
 21
-28.185012
 31
0.0
  0
LINE
  5
1D6
330
AC5
100
AcDbEntity
  8
V0-OBRYS
  6
CONTINUOUS
 62
    90
100
AcDbLine
 10
187.630408
 20
-23.18652
 30
0.0
 11
313.122858
 21
-23.18652
 31
0.0
  0
LINE
  5
1D7
330
AC5
100
AcDbEntity
  8
V0-OBRYS
  6
CONTINUOUS
 62
    90
100
AcDbLine
 10
187.630408
 20
-34.433127
 30
0.0
 11
313.122858
 21
-34.433127
 31
0.0
  0
LINE
  5
1D8
330
AC5
100
AcDbEntity
  8
V0-OBRYS
  6
CONTINUOUS
 62
    90
100
AcDbLine
 10
187.630408
 20
-13.189536
 30
0.0
 11
313.122858
 21
-13.189536
 31
0.0
  0
LINE
  5
1D9
330
AC5
100
AcDbEntity
  8
V0-OBRYS
  6
CONTINUOUS
 62
    90
100
AcDbLine
 10
187.630408
 20
-18.188028
 30
0.0
 11
313.122858
 21
-18.188028
 31
0.0
  0
LINE
  5
1DA
330
AC5
100
AcDbEntity
  8
V0-OBRYS
  6
CONTINUOUS
 62
    90
100
AcDbLine
 10
187.630408
 20
-46.929357
 30
0.0
 11
313.122858
 21
-46.929357
 31
0.0
  0
LINE
  5
1DB
330
AC5
100
AcDbEntity
  8
V0-OBRYS
  6
CONTINUOUS
 62
    90
100
AcDbLine
 10
187.630408
 20
-8.191044
 30
0.0
 11
313.122858
 21
-8.191044
 31
0.0
  0
LINE
  5
1DC
330
AC5
100
AcDbEntity
  8
V0-VYPLNE
  6
DASHDOT
 62
    63
100
AcDbLine
 10
250.376633
 20
85.530681
 30
0.0
 11
250.376633
 21
-85.37681099999999
 31
0.0
  0
LINE
  5
1DD
330
AC5
100
AcDbEntity
  8
V0-VYPLNE
  6
DASHDOT
 62
    63
100
AcDbLine
 10
159.154154
 20
-3.277882
 30
0.0
 11
347.260659
 21
-3.277882
 31
0.0
  0
DIMENSION
  5
3EF
330
AC5
100
AcDbEntity
  8
V0-VYPLNE
  6
CONTINUOUS
 62
    41
100
AcDbDimension
  2
*D5
 10
105.857204
 20
89.43938599999997
 30
0.0
 11
78.17180400000001
 21
95.93938599999997
 31
0.0
 70
    32
  3
ED5
100
AcDbAlignedDimension
 13
50.486404
 23
74.303448
 33
0.0
 14
105.857204
 24
46.819898
 34
0.0
100
AcDbRotatedDimension
1001
ACAD
1000
DSTYLE
1002
{
1070
    40
1040
1.0
1002
}
  0
DIMENSION
  5
409
330
AC5
100
AcDbEntity
  8
V0-VYPLNE
  6
CONTINUOUS
 62
    41
100
AcDbDimension
  2
*D6
 10
127.7752119999996
 20
-51.736302
 30
0.0
 11
127.775212
 21
-0.765849
 31
0.0
 70
   160
  1
%%c<>
  3
ED5
100
AcDbAlignedDimension
 13
105.857204
 23
45.851198
 33
0.0
 14
105.857204
 24
-51.736302
 34
0.0
 50
90.0
100
AcDbRotatedDimension
1001
ACAD
1000
DSTYLE
1002
{
1070
    40
1040
1.0
1002
}
  0
POINT
  5
59B
330
AC5
100
AcDbEntity
  8
V0-VYPLNE
  6
CONTINUOUS
 62
    52
100
AcDbPoint
 10
50.486404
 20
-3.192552
 30
0.0
  0
POINT
  5
59D
330
AC5
100
AcDbEntity
  8
V0-VYPLNE
  6
CONTINUOUS
 62
    52
100
AcDbPoint
 10
250.376633
 20
-3.192552
 30
0.0
  0
DIMENSION
  5
6A4
330
AC5
100
AcDbEntity
  8
V0-VYPLNE
  6
CONTINUOUS
 62
    41
100
AcDbDimension
  2
*D7
 10
105.857204
 20
106.608490999999
 30
0.0
 11
57.1090585
 21
113.108490999999
 31
0.0
 70
    32
  3
ED5
100
AcDbAlignedDimension
 13
8.360913
 23
74.303448
 33
0.0
 14
105.857204
 24
45.851198
 34
0.0
100
AcDbRotatedDimension
1001
ACAD
1000
DSTYLE
1002
{
1070
    40
1040
1.0
1002
}
  0
ARC
  5
6E0
330
AC5
100
AcDbEntity
  8
V0-OBRYS
  6
CONTINUOUS
 62
    90
100
AcDbCircle
 10
839.811137
 20
-3.192552
 30
0.0
 40
831.479633
100
AcDbArc
 50
174.967741
 51
176.863109
  0
ARC
  5
6E1
330
AC5
100
AcDbEntity
  8
V0-OBRYS
  6
CONTINUOUS
 62
    90
100
AcDbCircle
 10
16.517195
 20
69.303448
 30
0.0
 40
5.0
100
AcDbArc
 50
90.0
 51
174.967741
  0
ARC
  5
6E2
330
AC5
100
AcDbEntity
  8
V0-OBRYS
  6
CONTINUOUS
 62
    90
100
AcDbCircle
 10
16.517195
 20
-75.688552
 30
0.0
 40
5.0
100
AcDbArc
 50
185.032259
 51
270.0
  0
LINE
  5
6EF
330
AC5
100
AcDbEntity
  8
V0-OBRYS
  6
CONTINUOUS
 62
    90
100
AcDbLine
 10
10.229401
 20
52.954799
 30
0.0
 11
11.92312
 21
52.954799
 31
0.0
  0
LINE
  5
6F0
330
AC5
100
AcDbEntity
  8
V0-OBRYS
  6
CONTINUOUS
 62
    90
100
AcDbLine
 10
11.92312
 20
52.954799
 30
0.0
 11
11.92312
 21
42.307448
 31
0.0
  0
LINE
  5
6F1
330
AC5
100
AcDbEntity
  8
V0-OBRYS
  6
CONTINUOUS
 62
    90
100
AcDbLine
 10
11.92312
 20
-59.515596
 30
0.0
 11
10.651235
 21
-59.515596
 31
0.0
  0
LINE
  5
6FB
330
AC5
100
AcDbEntity
  8
V0-OBRYS
  6
CONTINUOUS
 62
    90
100
AcDbLine
 10
249.376633
 20
74.284074
 30
0.0
 11
182.900007
 21
74.284074
 31
0.0
  0
LINE
  5
6FC
330
AC5
100
AcDbEntity
  8
V0-OBRYS
  6
CONTINUOUS
 62
    90
100
AcDbLine
 10
172.900007
 20
-3.192552
 30
0.0
 11
172.900007
 21
64.284074
 31
0.0
  0
LINE
  5
6FD
330
AC5
100
AcDbEntity
  8
V0-OBRYS
  6
CONTINUOUS
 62
    90
100
AcDbLine
 10
250.376633
 20
-80.669178
 30
0.0
 11
182.900007
 21
-80.669178
 31
0.0
  0
LINE
  5
6FE
330
AC5
100
AcDbEntity
  8
V0-OBRYS
  6
CONTINUOUS
 62
    90
100
AcDbLine
 10
172.900007
 20
-4.192552
 30
0.0
 11
172.900007
 21
-70.669178
 31
0.0
  0
LINE
  5
6FF
330
AC5
100
AcDbEntity
  8
V0-OBRYS
  6
CONTINUOUS
 62
    90
100
AcDbLine
 10
327.853259
 20
-3.192552
 30
0.0
 11
327.853259
 21
-70.669178
 31
0.0
  0
LINE
  5
700
330
AC5
100
AcDbEntity
  8
V0-OBRYS
  6
CONTINUOUS
 62
    90
100
AcDbLine
 10
251.376633
 20
-80.669178
 30
0.0
 11
317.853259
 21
-80.669178
 31
0.0
  0
LINE
  5
701
330
AC5
100
AcDbEntity
  8
V0-OBRYS
  6
CONTINUOUS
 62
    90
100
AcDbLine
 10
250.376633
 20
74.284074
 30
0.0
 11
317.853259
 21
74.284074
 31
0.0
  0
LINE
  5
702
330
AC5
100
AcDbEntity
  8
V0-OBRYS
  6
CONTINUOUS
 62
    90
100
AcDbLine
 10
327.853259
 20
-2.192552
 30
0.0
 11
327.853259
 21
64.284074
 31
0.0
  0
ARC
  5
703
330
AC5
100
AcDbEntity
  8
V0-OBRYS
  6
CONTINUOUS
 62
    90
100
AcDbCircle
 10
182.900007
 20
64.284074
 30
0.0
 40
10.0
100
AcDbArc
 50
90.0
 51
180.0
  0
ARC
  5
704
330
AC5
100
AcDbEntity
  8
V0-OBRYS
  6
CONTINUOUS
 62
    90
100
AcDbCircle
 10
182.900007
 20
-70.669178
 30
0.0
 40
10.0
100
AcDbArc
 50
180.0
 51
270.0
  0
ARC
  5
705
330
AC5
100
AcDbEntity
  8
V0-OBRYS
  6
CONTINUOUS
 62
    90
100
AcDbCircle
 10
317.853259
 20
-70.669178
 30
0.0
 40
10.0
100
AcDbArc
 50
270.0
 51
0.0
  0
ARC
  5
706
330
AC5
100
AcDbEntity
  8
V0-OBRYS
  6
CONTINUOUS
 62
    90
100
AcDbCircle
 10
317.853259
 20
64.284074
 30
0.0
 40
10.0
100
AcDbArc
 50
360.0
 51
90.0
  0
LINE
  5
710
330
AC5
100
AcDbEntity
  8
V0-OBRYS
  6
CONTINUOUS
 62
    90
100
AcDbLine
 10
201.14209
 20
-3.192552
 30
0.0
 11
201.14209
 21
40.542745
 31
0.0
  0
LINE
  5
711
330
AC5
100
AcDbEntity
  8
V0-OBRYS
  6
CONTINUOUS
 62
    90
100
AcDbLine
 10
201.14209
 20
-3.192552
 30
0.0
 11
201.14209
 21
-46.927849
 31
0.0
  0
LINE
  5
712
330
AC5
100
AcDbEntity
  8
V0-OBRYS
  6
CONTINUOUS
 62
    90
100
AcDbLine
 10
299.611176
 20
40.542745
 30
0.0
 11
299.611176
 21
-46.92784900000001
 31
0.0
  0
LINE
  5
718
330
AC5
100
AcDbEntity
  8
V0-OBRYS
  6
CONTINUOUS
 62
    90
100
AcDbLine
 10
187.630408
 20
39.544253
 30
0.0
 11
313.122858
 21
39.544253
 31
0.0
  0
LINE
  5
719
330
AC5
100
AcDbEntity
  8
V0-OBRYS
  6
CONTINUOUS
 62
    90
100
AcDbLine
 10
187.630408
 20
33.296138
 30
0.0
 11
313.122858
 21
33.296138
 31
0.0
  0
LINE
  5
71A
330
AC5
100
AcDbEntity
  8
V0-OBRYS
  6
CONTINUOUS
 62
    90
100
AcDbLine
 10
187.630408
 20
27.048023
 30
0.0
 11
313.122858
 21
27.048023
 31
0.0
  0
LINE
  5
71C
330
AC5
100
AcDbEntity
  8
V0-OBRYS
  6
CONTINUOUS
 62
    90
100
AcDbLine
 10
187.630408
 20
20.799908
 30
0.0
 11
313.122858
 21
20.799908
 31
0.0
  0
LINE
  5
71D
330
AC5
100
AcDbEntity
  8
V0-OBRYS
  6
CONTINUOUS
 62
    90
100
AcDbLine
 10
187.630408
 20
15.801416
 30
0.0
 11
313.122858
 21
15.801416
 31
0.0
  0
LINE
  5
71E
330
AC5
100
AcDbEntity
  8
V0-OBRYS
  6
CONTINUOUS
 62
    90
100
AcDbLine
 10
187.630408
 20
10.802924
 30
0.0
 11
313.122858
 21
10.802924
 31
0.0
  0
LINE
  5
71F
330
AC5
100
AcDbEntity
  8
V0-OBRYS
  6
CONTINUOUS
 62
    90
100
AcDbLine
 10
187.630408
 20
5.804432
 30
0.0
 11
313.122858
 21
5.804432
 31
0.0
  0
LINE
  5
720
330
AC5
100
AcDbEntity
  8
V0-OBRYS
  6
CONTINUOUS
 62
    90
100
AcDbLine
 10
187.630408
 20
0.80594
 30
0.0
 11
313.122858
 21
0.80594
 31
0.0
  0
LINE
  5
721
330
AC5
100
AcDbEntity
  8
V0-OBRYS
  6
CONTINUOUS
 62
    90
100
AcDbLine
 10
187.630408
 20
-7.191044
 30
0.0
 11
313.122858
 21
-7.191044
 31
0.0
  0
LINE
  5
722
330
AC5
100
AcDbEntity
  8
V0-OBRYS
  6
CONTINUOUS
 62
    90
100
AcDbLine
 10
187.630408
 20
-12.189536
 30
0.0
 11
313.122858
 21
-12.189536
 31
0.0
  0
LINE
  5
723
330
AC5
100
AcDbEntity
  8
V0-OBRYS
  6
CONTINUOUS
 62
    90
100
AcDbLine
 10
187.630408
 20
-17.188028
 30
0.0
 11
313.122858
 21
-17.188028
 31
0.0
  0
LINE
  5
724
330
AC5
100
AcDbEntity
  8
V0-OBRYS
  6
CONTINUOUS
 62
    90
100
AcDbLine
 10
187.630408
 20
-22.18652
 30
0.0
 11
313.122858
 21
-22.18652
 31
0.0
  0
LINE
  5
725
330
AC5
100
AcDbEntity
  8
V0-OBRYS
  6
CONTINUOUS
 62
    90
100
AcDbLine
 10
187.630408
 20
-27.185012
 30
0.0
 11
313.122858
 21
-27.185012
 31
0.0
  0
LINE
  5
726
330
AC5
100
AcDbEntity
  8
V0-OBRYS
  6
CONTINUOUS
 62
    90
100
AcDbLine
 10
187.630408
 20
-33.433127
 30
0.0
 11
313.122858
 21
-33.433127
 31
0.0
  0
LINE
  5
727
330
AC5
100
AcDbEntity
  8
V0-OBRYS
  6
CONTINUOUS
 62
    90
100
AcDbLine
 10
187.630408
 20
-39.681242
 30
0.0
 11
313.122858
 21
-39.681242
 31
0.0
  0
LINE
  5
728
330
AC5
100
AcDbEntity
  8
V0-OBRYS
  6
CONTINUOUS
 62
    90
100
AcDbLine
 10
187.630408
 20
-45.929357
 30
0.0
 11
313.122858
 21
-45.929357
 31
0.0
  0
ARC
  5
729
330
AC5
100
AcDbEntity
  8
V0-OBRYS
  6
CONTINUOUS
 62
    90
100
AcDbCircle
 10
206.14209
 20
-46.927849
 30
0.0
 40
5.0
100
AcDbArc
 50
180.0
 51
270.0
  0
ARC
  5
72A
330
AC5
100
AcDbEntity
  8
V0-OBRYS
  6
CONTINUOUS
 62
    90
100
AcDbCircle
 10
294.611176
 20
-46.927849
 30
0.0
 40
5.0
100
AcDbArc
 50
270.0
 51
360.0
  0
ARC
  5
72B
330
AC5
100
AcDbEntity
  8
V0-OBRYS
  6
CONTINUOUS
 62
    90
100
AcDbCircle
 10
294.611176
 20
40.542745
 30
0.0
 40
5.0
100
AcDbArc
 50
360.0
 51
90.0
  0
ARC
  5
72C
330
AC5
100
AcDbEntity
  8
V0-OBRYS
  6
CONTINUOUS
 62
    90
100
AcDbCircle
 10
206.14209
 20
40.542745
 30
0.0
 40
5.0
100
AcDbArc
 50
90.0
 51
180.0
  0
LINE
  5
72D
330
AC5
100
AcDbEntity
  8
V0-OBRYS
  6
CONTINUOUS
 62
    90
100
AcDbLine
 10
187.630408
 20
40.544253
 30
0.0
 11
187.630408
 21
39.544253
 31
0.0
  0
LINE
  5
72E
330
AC5
100
AcDbEntity
  8
V0-OBRYS
  6
CONTINUOUS
 62
    90
100
AcDbLine
 10
187.630408
 20
34.296138
 30
0.0
 11
187.630408
 21
33.296138
 31
0.0
  0
LINE
  5
72F
330
AC5
100
AcDbEntity
  8
V0-OBRYS
  6
CONTINUOUS
 62
    90
100
AcDbLine
 10
187.630408
 20
28.048023
 30
0.0
 11
187.630408
 21
27.048023
 31
0.0
  0
LINE
  5
730
330
AC5
100
AcDbEntity
  8
V0-OBRYS
  6
CONTINUOUS
 62
    90
100
AcDbLine
 10
187.630408
 20
21.799908
 30
0.0
 11
187.630408
 21
20.799908
 31
0.0
  0
LINE
  5
731
330
AC5
100
AcDbEntity
  8
V0-OBRYS
  6
CONTINUOUS
 62
    90
100
AcDbLine
 10
187.630408
 20
16.801416
 30
0.0
 11
187.630408
 21
15.801416
 31
0.0
  0
LINE
  5
732
330
AC5
100
AcDbEntity
  8
V0-OBRYS
  6
CONTINUOUS
 62
    90
100
AcDbLine
 10
187.630408
 20
11.802924
 30
0.0
 11
187.630408
 21
10.802924
 31
0.0
  0
LINE
  5
733
330
AC5
100
AcDbEntity
  8
V0-OBRYS
  6
CONTINUOUS
 62
    90
100
AcDbLine
 10
187.630408
 20
5.804432
 30
0.0
 11
187.630408
 21
6.804432
 31
0.0
  0
LINE
  5
734
330
AC5
100
AcDbEntity
  8
V0-OBRYS
  6
CONTINUOUS
 62
    90
100
AcDbLine
 10
187.630408
 20
1.80594
 30
0.0
 11
187.630408
 21
1.80594
 31
0.0
  0
LINE
  5
735
330
AC5
100
AcDbEntity
  8
V0-OBRYS
  6
CONTINUOUS
 62
    90
100
AcDbLine
 10
187.630408
 20
1.80594
 30
0.0
 11
187.630408
 21
0.8059400000000001
 31
0.0
  0
LINE
  5
736
330
AC5
100
AcDbEntity
  8
V0-OBRYS
  6
CONTINUOUS
 62
    90
100
AcDbLine
 10
187.630408
 20
-7.191044
 30
0.0
 11
187.630408
 21
-7.191044
 31
0.0
  0
LINE
  5
737
330
AC5
100
AcDbEntity
  8
V0-OBRYS
  6
CONTINUOUS
 62
    90
100
AcDbLine
 10
187.630408
 20
-7.191044
 30
0.0
 11
187.630408
 21
-8.191044
 31
0.0
  0
LINE
  5
738
330
AC5
100
AcDbEntity
  8
V0-OBRYS
  6
CONTINUOUS
 62
    90
100
AcDbLine
 10
187.630408
 20
-12.189536
 30
0.0
 11
187.630408
 21
-13.189536
 31
0.0
  0
LINE
  5
739
330
AC5
100
AcDbEntity
  8
V0-OBRYS
  6
CONTINUOUS
 62
    90
100
AcDbLine
 10
187.630408
 20
-17.188028
 30
0.0
 11
187.630408
 21
-18.188028
 31
0.0
  0
LINE
  5
73A
330
AC5
100
AcDbEntity
  8
V0-OBRYS
  6
CONTINUOUS
 62
    90
100
AcDbLine
 10
187.630408
 20
-22.18652
 30
0.0
 11
187.630408
 21
-23.18652
 31
0.0
  0
LINE
  5
73B
330
AC5
100
AcDbEntity
  8
V0-OBRYS
  6
CONTINUOUS
 62
    90
100
AcDbLine
 10
187.630408
 20
-27.185012
 30
0.0
 11
187.630408
 21
-28.185012
 31
0.0
  0
LINE
  5
73C
330
AC5
100
AcDbEntity
  8
V0-OBRYS
  6
CONTINUOUS
 62
    90
100
AcDbLine
 10
187.630408
 20
-33.433127
 30
0.0
 11
187.630408
 21
-34.433127
 31
0.0
  0
LINE
  5
73D
330
AC5
100
AcDbEntity
  8
V0-OBRYS
  6
CONTINUOUS
 62
    90
100
AcDbLine
 10
187.630408
 20
-39.681242
 30
0.0
 11
187.630408
 21
-40.681242
 31
0.0
  0
LINE
  5
73E
330
AC5
100
AcDbEntity
  8
V0-OBRYS
  6
CONTINUOUS
 62
    90
100
AcDbLine
 10
187.630408
 20
-45.929357
 30
0.0
 11
187.630408
 21
-46.929357
 31
0.0
  0
LINE
  5
73F
330
AC5
100
AcDbEntity
  8
V0-OBRYS
  6
CONTINUOUS
 62
    90
100
AcDbLine
 10
313.122858
 20
-45.929357
 30
0.0
 11
313.122858
 21
-46.929357
 31
0.0
  0
LINE
  5
740
330
AC5
100
AcDbEntity
  8
V0-OBRYS
  6
CONTINUOUS
 62
    90
100
AcDbLine
 10
313.122858
 20
-39.681242
 30
0.0
 11
313.122858
 21
-40.681242
 31
0.0
  0
LINE
  5
741
330
AC5
100
AcDbEntity
  8
V0-OBRYS
  6
CONTINUOUS
 62
    90
100
AcDbLine
 10
313.122858
 20
-33.433127
 30
0.0
 11
313.122858
 21
-34.433127
 31
0.0
  0
LINE
  5
742
330
AC5
100
AcDbEntity
  8
V0-OBRYS
  6
CONTINUOUS
 62
    90
100
AcDbLine
 10
313.122858
 20
-27.185012
 30
0.0
 11
313.122858
 21
-28.185012
 31
0.0
  0
LINE
  5
743
330
AC5
100
AcDbEntity
  8
V0-OBRYS
  6
CONTINUOUS
 62
    90
100
AcDbLine
 10
313.122858
 20
-7.191044
 30
0.0
 11
313.122858
 21
-8.191044
 31
0.0
  0
LINE
  5
744
330
AC5
100
AcDbEntity
  8
V0-OBRYS
  6
CONTINUOUS
 62
    90
100
AcDbLine
 10
313.122858
 20
-22.18652
 30
0.0
 11
313.122858
 21
-23.18652
 31
0.0
  0
LINE
  5
745
330
AC5
100
AcDbEntity
  8
V0-OBRYS
  6
CONTINUOUS
 62
    90
100
AcDbLine
 10
313.122858
 20
-17.188028
 30
0.0
 11
313.122858
 21
-18.188028
 31
0.0
  0
LINE
  5
746
330
AC5
100
AcDbEntity
  8
V0-OBRYS
  6
CONTINUOUS
 62
    90
100
AcDbLine
 10
313.122858
 20
-12.189536
 30
0.0
 11
313.122858
 21
-13.189536
 31
0.0
  0
LINE
  5
747
330
AC5
100
AcDbEntity
  8
V0-OBRYS
  6
CONTINUOUS
 62
    90
100
AcDbLine
 10
313.122858
 20
-7.191044
 30
0.0
 11
313.122858
 21
-7.191044
 31
0.0
  0
LINE
  5
748
330
AC5
100
AcDbEntity
  8
V0-OBRYS
  6
CONTINUOUS
 62
    90
100
AcDbLine
 10
313.122858
 20
1.80594
 30
0.0
 11
313.122858
 21
0.8059400000000001
 31
0.0
  0
LINE
  5
749
330
AC5
100
AcDbEntity
  8
V0-OBRYS
  6
CONTINUOUS
 62
    90
100
AcDbLine
 10
313.122858
 20
1.80594
 30
0.0
 11
313.122858
 21
1.80594
 31
0.0
  0
LINE
  5
74A
330
AC5
100
AcDbEntity
  8
V0-OBRYS
  6
CONTINUOUS
 62
    90
100
AcDbLine
 10
313.122858
 20
5.804432
 30
0.0
 11
313.122858
 21
6.804432
 31
0.0
  0
LINE
  5
74B
330
AC5
100
AcDbEntity
  8
V0-OBRYS
  6
CONTINUOUS
 62
    90
100
AcDbLine
 10
313.122858
 20
11.802924
 30
0.0
 11
313.122858
 21
10.802924
 31
0.0
  0
LINE
  5
74C
330
AC5
100
AcDbEntity
  8
V0-OBRYS
  6
CONTINUOUS
 62
    90
100
AcDbLine
 10
313.122858
 20
16.801416
 30
0.0
 11
313.122858
 21
15.801416
 31
0.0
  0
LINE
  5
74D
330
AC5
100
AcDbEntity
  8
V0-OBRYS
  6
CONTINUOUS
 62
    90
100
AcDbLine
 10
313.122858
 20
21.799908
 30
0.0
 11
313.122858
 21
20.799908
 31
0.0
  0
LINE
  5
74E
330
AC5
100
AcDbEntity
  8
V0-OBRYS
  6
CONTINUOUS
 62
    90
100
AcDbLine
 10
313.122858
 20
28.048023
 30
0.0
 11
313.122858
 21
27.048023
 31
0.0
  0
LINE
  5
74F
330
AC5
100
AcDbEntity
  8
V0-OBRYS
  6
CONTINUOUS
 62
    90
100
AcDbLine
 10
313.122858
 20
34.296138
 30
0.0
 11
313.122858
 21
33.296138
 31
0.0
  0
LINE
  5
750
330
AC5
100
AcDbEntity
  8
V0-OBRYS
  6
CONTINUOUS
 62
    90
100
AcDbLine
 10
313.122858
 20
40.544253
 30
0.0
 11
313.122858
 21
39.544253
 31
0.0
  0
LINE
  5
752
330
AC5
100
AcDbEntity
  8
V0-OBRYS
  6
CONTINUOUS
 62
    90
100
AcDbLine
 10
11.92312
 20
41.307448
 30
0.0
 11
6.92312
 21
41.307448
 31
0.0
  0
LINE
  5
753
330
AC5
100
AcDbEntity
  8
V0-OBRYS
  6
CONTINUOUS
 62
    90
100
AcDbLine
 10
11.92312
 20
41.307448
 30
0.0
 11
11.92312
 21
38.307448
 31
0.0
  0
LINE
  5
755
330
AC5
100
AcDbEntity
  8
V0-OBRYS
  6
CONTINUOUS
 62
    90
100
AcDbLine
 10
11.92312
 20
42.307448
 30
0.0
 11
6.92312
 21
42.307448
 31
0.0
  0
LINE
  5
756
330
AC5
100
AcDbEntity
  8
V0-OBRYS
  6
CONTINUOUS
 62
    90
100
AcDbLine
 10
11.92312
 20
37.307448
 30
0.0
 11
6.92312
 21
37.307448
 31
0.0
  0
LINE
  5
757
330
AC5
100
AcDbEntity
  8
V0-OBRYS
  6
CONTINUOUS
 62
    90
100
AcDbLine
 10
11.92312
 20
37.307448
 30
0.0
 11
11.92312
 21
34.307448
 31
0.0
  0
LINE
  5
759
330
AC5
100
AcDbEntity
  8
V0-OBRYS
  6
CONTINUOUS
 62
    90
100
AcDbLine
 10
11.92312
 20
38.307448
 30
0.0
 11
6.92312
 21
38.307448
 31
0.0
  0
LINE
  5
75A
330
AC5
100
AcDbEntity
  8
V0-OBRYS
  6
CONTINUOUS
 62
    90
100
AcDbLine
 10
11.92312
 20
33.307448
 30
0.0
 11
6.92312
 21
33.307448
 31
0.0
  0
LINE
  5
75B
330
AC5
100
AcDbEntity
  8
V0-OBRYS
  6
CONTINUOUS
 62
    90
100
AcDbLine
 10
11.92312
 20
33.307448
 30
0.0
 11
11.92312
 21
30.307448
 31
0.0
  0
LINE
  5
75D
330
AC5
100
AcDbEntity
  8
V0-OBRYS
  6
CONTINUOUS
 62
    90
100
AcDbLine
 10
11.92312
 20
34.307448
 30
0.0
 11
6.92312
 21
34.307448
 31
0.0
  0
LINE
  5
75E
330
AC5
100
AcDbEntity
  8
V0-OBRYS
  6
CONTINUOUS
 62
    90
100
AcDbLine
 10
11.92312
 20
29.307448
 30
0.0
 11
6.92312
 21
29.307448
 31
0.0
  0
LINE
  5
75F
330
AC5
100
AcDbEntity
  8
V0-OBRYS
  6
CONTINUOUS
 62
    90
100
AcDbLine
 10
11.92312
 20
29.307448
 30
0.0
 11
11.92312
 21
26.307448
 31
0.0
  0
LINE
  5
761
330
AC5
100
AcDbEntity
  8
V0-OBRYS
  6
CONTINUOUS
 62
    90
100
AcDbLine
 10
11.92312
 20
30.307448
 30
0.0
 11
6.92312
 21
30.307448
 31
0.0
  0
LINE
  5
762
330
AC5
100
AcDbEntity
  8
V0-OBRYS
  6
CONTINUOUS
 62
    90
100
AcDbLine
 10
11.92312
 20
25.307448
 30
0.0
 11
6.92312
 21
25.307448
 31
0.0
  0
LINE
  5
763
330
AC5
100
AcDbEntity
  8
V0-OBRYS
  6
CONTINUOUS
 62
    90
100
AcDbLine
 10
11.92312
 20
25.307448
 30
0.0
 11
11.92312
 21
22.307448
 31
0.0
  0
LINE
  5
765
330
AC5
100
AcDbEntity
  8
V0-OBRYS
  6
CONTINUOUS
 62
    90
100
AcDbLine
 10
11.92312
 20
26.307448
 30
0.0
 11
6.92312
 21
26.307448
 31
0.0
  0
LINE
  5
767
330
AC5
100
AcDbEntity
  8
V0-OBRYS
  6
CONTINUOUS
 62
    90
100
AcDbLine
 10
11.92312
 20
21.307448
 30
0.0
 11
11.92312
 21
18.307448
 31
0.0
  0
LINE
  5
76A
330
AC5
100
AcDbEntity
  8
V0-OBRYS
  6
CONTINUOUS
 62
    90
100
AcDbLine
 10
11.92312
 20
21.307448
 30
0.0
 11
6.92312
 21
21.307448
 31
0.0
  0
LINE
  5
76B
330
AC5
100
AcDbEntity
  8
V0-OBRYS
  6
CONTINUOUS
 62
    90
100
AcDbLine
 10
11.92312
 20
22.307448
 30
0.0
 11
6.92312
 21
22.307448
 31
0.0
  0
LINE
  5
76C
330
AC5
100
AcDbEntity
  8
V0-OBRYS
  6
CONTINUOUS
 62
    90
100
AcDbLine
 10
11.92312
 20
17.307448
 30
0.0
 11
6.92312
 21
17.307448
 31
0.0
  0
LINE
  5
76D
330
AC5
100
AcDbEntity
  8
V0-OBRYS
  6
CONTINUOUS
 62
    90
100
AcDbLine
 10
11.92312
 20
17.307448
 30
0.0
 11
11.92312
 21
14.307448
 31
0.0
  0
LINE
  5
76F
330
AC5
100
AcDbEntity
  8
V0-OBRYS
  6
CONTINUOUS
 62
    90
100
AcDbLine
 10
11.92312
 20
18.307448
 30
0.0
 11
6.92312
 21
18.307448
 31
0.0
  0
LINE
  5
770
330
AC5
100
AcDbEntity
  8
V0-OBRYS
  6
CONTINUOUS
 62
    90
100
AcDbLine
 10
11.92312
 20
13.307448
 30
0.0
 11
6.92312
 21
13.307448
 31
0.0
  0
LINE
  5
771
330
AC5
100
AcDbEntity
  8
V0-OBRYS
  6
CONTINUOUS
 62
    90
100
AcDbLine
 10
11.92312
 20
13.307448
 30
0.0
 11
11.92312
 21
10.307448
 31
0.0
  0
LINE
  5
773
330
AC5
100
AcDbEntity
  8
V0-OBRYS
  6
CONTINUOUS
 62
    90
100
AcDbLine
 10
11.92312
 20
14.307448
 30
0.0
 11
6.92312
 21
14.307448
 31
0.0
  0
LINE
  5
774
330
AC5
100
AcDbEntity
  8
V0-OBRYS
  6
CONTINUOUS
 62
    90
100
AcDbLine
 10
11.92312
 20
9.307448000000001
 30
0.0
 11
6.92312
 21
9.307448000000001
 31
0.0
  0
LINE
  5
775
330
AC5
100
AcDbEntity
  8
V0-OBRYS
  6
CONTINUOUS
 62
    90
100
AcDbLine
 10
11.92312
 20
9.307448000000001
 30
0.0
 11
11.92312
 21
5.307448
 31
0.0
  0
LINE
  5
777
330
AC5
100
AcDbEntity
  8
V0-OBRYS
  6
CONTINUOUS
 62
    90
100
AcDbLine
 10
11.92312
 20
10.307448
 30
0.0
 11
6.92312
 21
10.307448
 31
0.0
  0
LINE
  5
778
330
AC5
100
AcDbEntity
  8
V0-OBRYS
  6
CONTINUOUS
 62
    90
100
AcDbLine
 10
11.92312
 20
4.307448
 30
0.0
 11
6.92312
 21
4.307448
 31
0.0
  0
LINE
  5
779
330
AC5
100
AcDbEntity
  8
V0-OBRYS
  6
CONTINUOUS
 62
    90
100
AcDbLine
 10
11.92312
 20
4.307448
 30
0.0
 11
11.92312
 21
1.307448
 31
0.0
  0
LINE
  5
77B
330
AC5
100
AcDbEntity
  8
V0-OBRYS
  6
CONTINUOUS
 62
    90
100
AcDbLine
 10
11.92312
 20
5.307448
 30
0.0
 11
6.92312
 21
5.307448
 31
0.0
  0
LINE
  5
77C
330
AC5
100
AcDbEntity
  8
V0-OBRYS
  6
CONTINUOUS
 62
    90
100
AcDbLine
 10
11.92312
 20
0.307448
 30
0.0
 11
6.92312
 21
0.307448
 31
0.0
  0
LINE
  5
77D
330
AC5
100
AcDbEntity
  8
V0-OBRYS
  6
CONTINUOUS
 62
    90
100
AcDbLine
 10
11.92312
 20
0.307448
 30
0.0
 11
11.92312
 21
-59.515596
 31
0.0
  0
LINE
  5
77F
330
AC5
100
AcDbEntity
  8
V0-OBRYS
  6
CONTINUOUS
 62
    90
100
AcDbLine
 10
11.92312
 20
1.307448
 30
0.0
 11
6.92312
 21
1.307448
 31
0.0
  0
LINE
  5
780
330
AC5
100
AcDbEntity
  8
V0-OBRYS
  6
CONTINUOUS
 62
    90
100
AcDbLine
 10
11.92312
 20
-3.692552
 30
0.0
 11
6.92312
 21
-3.692552
 31
0.0
  0
LINE
  5
781
330
AC5
100
AcDbEntity
  8
V0-OBRYS
  6
CONTINUOUS
 62
    90
100
AcDbLine
 10
11.92312
 20
-2.692552
 30
0.0
 11
6.92312
 21
-2.692552
 31
0.0
  0
LINE
  5
784
330
AC5
100
AcDbEntity
  8
V0-OBRYS
  6
CONTINUOUS
 62
    90
100
AcDbLine
 10
6.92312
 20
42.307448
 30
0.0
 11
6.92312
 21
41.307448
 31
0.0
  0
LINE
  5
785
330
AC5
100
AcDbEntity
  8
V0-OBRYS
  6
CONTINUOUS
 62
    90
100
AcDbLine
 10
6.92312
 20
38.307448
 30
0.0
 11
6.92312
 21
37.307448
 31
0.0
  0
LINE
  5
786
330
AC5
100
AcDbEntity
  8
V0-OBRYS
  6
CONTINUOUS
 62
    90
100
AcDbLine
 10
6.92312
 20
34.307448
 30
0.0
 11
6.92312
 21
33.307448
 31
0.0
  0
LINE
  5
787
330
AC5
100
AcDbEntity
  8
V0-OBRYS
  6
CONTINUOUS
 62
    90
100
AcDbLine
 10
6.92312
 20
30.307448
 30
0.0
 11
6.92312
 21
29.307448
 31
0.0
  0
LINE
  5
788
330
AC5
100
AcDbEntity
  8
V0-OBRYS
  6
CONTINUOUS
 62
    90
100
AcDbLine
 10
6.92312
 20
26.307448
 30
0.0
 11
6.92312
 21
25.307448
 31
0.0
  0
LINE
  5
789
330
AC5
100
AcDbEntity
  8
V0-OBRYS
  6
CONTINUOUS
 62
    90
100
AcDbLine
 10
6.92312
 20
22.307448
 30
0.0
 11
6.92312
 21
21.307448
 31
0.0
  0
LINE
  5
78A
330
AC5
100
AcDbEntity
  8
V0-OBRYS
  6
CONTINUOUS
 62
    90
100
AcDbLine
 10
6.92312
 20
18.307448
 30
0.0
 11
6.92312
 21
17.307448
 31
0.0
  0
LINE
  5
78B
330
AC5
100
AcDbEntity
  8
V0-OBRYS
  6
CONTINUOUS
 62
    90
100
AcDbLine
 10
6.92312
 20
14.307448
 30
0.0
 11
6.92312
 21
13.307448
 31
0.0
  0
LINE
  5
78C
330
AC5
100
AcDbEntity
  8
V0-OBRYS
  6
CONTINUOUS
 62
    90
100
AcDbLine
 10
6.92312
 20
10.307448
 30
0.0
 11
6.92312
 21
9.307448000000001
 31
0.0
  0
LINE
  5
78D
330
AC5
100
AcDbEntity
  8
V0-OBRYS
  6
CONTINUOUS
 62
    90
100
AcDbLine
 10
6.92312
 20
5.307448
 30
0.0
 11
6.92312
 21
4.307448
 31
0.0
  0
LINE
  5
78E
330
AC5
100
AcDbEntity
  8
V0-OBRYS
  6
CONTINUOUS
 62
    90
100
AcDbLine
 10
6.92312
 20
1.307448
 30
0.0
 11
6.92312
 21
0.3074479999999999
 31
0.0
  0
LINE
  5
78F
330
AC5
100
AcDbEntity
  8
V0-OBRYS
  6
CONTINUOUS
 62
    90
100
AcDbLine
 10
6.92312
 20
-2.692552
 30
0.0
 11
6.92312
 21
-3.692552
 31
0.0
  0
ARC
  5
790
330
AC5
100
AcDbEntity
  8
V0-OBRYS
  6
CONTINUOUS
 62
    90
100
AcDbCircle
 10
839.811137
 20
-3.192552
 30
0.0
 40
831.479633
100
AcDbArc
 50
176.932119
 51
177.13912
  0
ARC
  5
791
330
AC5
100
AcDbEntity
  8
V0-OBRYS
  6
CONTINUOUS
 62
    90
100
AcDbCircle
 10
839.811137
 20
-3.192552
 30
0.0
 40
831.479633
100
AcDbArc
 50
177.208112
 51
177.415065
  0
ARC
  5
792
330
AC5
100
AcDbEntity
  8
V0-OBRYS
  6
CONTINUOUS
 62
    90
100
AcDbCircle
 10
839.811137
 20
-3.192552
 30
0.0
 40
831.479633
100
AcDbArc
 50
177.484042
 51
177.69095
  0
ARC
  5
793
330
AC5
100
AcDbEntity
  8
V0-OBRYS
  6
CONTINUOUS
 62
    90
100
AcDbCircle
 10
839.811137
 20
-3.192552
 30
0.0
 40
831.479633
100
AcDbArc
 50
177.759912
 51
177.966781
  0
ARC
  5
794
330
AC5
100
AcDbEntity
  8
V0-OBRYS
  6
CONTINUOUS
 62
    90
100
AcDbCircle
 10
839.811137
 20
-3.192552
 30
0.0
 40
831.479633
100
AcDbArc
 50
178.035731
 51
178.242565
  0
ARC
  5
795
330
AC5
100
AcDbEntity
  8
V0-OBRYS
  6
CONTINUOUS
 62
    90
100
AcDbCircle
 10
839.811137
 20
-3.192552
 30
0.0
 40
831.479633
100
AcDbArc
 50
178.311504
 51
178.518308
  0
ARC
  5
796
330
AC5
100
AcDbEntity
  8
V0-OBRYS
  6
CONTINUOUS
 62
    90
100
AcDbCircle
 10
839.811137
 20
-3.192552
 30
0.0
 40
831.479633
100
AcDbArc
 50
178.587238
 51
178.794017
  0
ARC
  5
797
330
AC5
100
AcDbEntity
  8
V0-OBRYS
  6
CONTINUOUS
 62
    90
100
AcDbCircle
 10
839.811137
 20
-3.192552
 30
0.0
 40
831.479633
100
AcDbArc
 50
178.86294
 51
179.069698
  0
ARC
  5
798
330
AC5
100
AcDbEntity
  8
V0-OBRYS
  6
CONTINUOUS
 62
    90
100
AcDbCircle
 10
839.811137
 20
-3.192552
 30
0.0
 40
831.479633
100
AcDbArc
 50
179.138615
 51
179.41427
  0
ARC
  5
799
330
AC5
100
AcDbEntity
  8
V0-OBRYS
  6
CONTINUOUS
 62
    90
100
AcDbCircle
 10
839.811137
 20
-3.192552
 30
0.0
 40
831.479633
100
AcDbArc
 50
179.483181
 51
179.689912
  0
ARC
  5
79A
330
AC5
100
AcDbEntity
  8
V0-OBRYS
  6
CONTINUOUS
 62
    90
100
AcDbCircle
 10
839.811137
 20
-3.192552
 30
0.0
 40
831.479633
100
AcDbArc
 50
179.758821
 51
185.032259
  0
ARC
  5
79B
330
AC5
100
AcDbEntity
  8
V0-OBRYS
  6
CONTINUOUS
 62
    90
100
AcDbCircle
 10
839.811137
 20
-3.192552
 30
0.0
 40
831.479633
100
AcDbArc
 50
180.58573
 51
180.861385
  0
LINE
  5
79C
330
AC5
100
AcDbEntity
  8
V0-OBRYS
  6
CONTINUOUS
 62
    90
100
AcDbLine
 10
11.92312
 20
-15.692552
 30
0.0
 11
11.92312
 21
-11.692552
 31
0.0
  0
ARC
  5
79D
330
AC5
100
AcDbEntity
  8
V0-OBRYS
  6
CONTINUOUS
 62
    90
100
AcDbCircle
 10
839.811137
 20
-3.192552
 30
0.0
 40
831.479633
100
AcDbArc
 50
180.310088
 51
180.516819
  0
LINE
  5
79E
330
AC5
100
AcDbEntity
  8
V0-OBRYS
  6
CONTINUOUS
 62
    90
100
AcDbLine
 10
6.92312
 20
-7.692552
 30
0.0
 11
6.92312
 21
-6.692552
 31
0.0
  0
LINE
  5
79F
330
AC5
100
AcDbEntity
  8
V0-OBRYS
  6
CONTINUOUS
 62
    90
100
AcDbLine
 10
6.92312
 20
-11.692552
 30
0.0
 11
6.92312
 21
-10.692552
 31
0.0
  0
LINE
  5
7A0
330
AC5
100
AcDbEntity
  8
V0-OBRYS
  6
CONTINUOUS
 62
    90
100
AcDbLine
 10
11.92312
 20
-7.692552
 30
0.0
 11
6.92312
 21
-7.692552
 31
0.0
  0
LINE
  5
7A1
330
AC5
100
AcDbEntity
  8
V0-OBRYS
  6
CONTINUOUS
 62
    90
100
AcDbLine
 10
11.92312
 20
-10.692552
 30
0.0
 11
11.92312
 21
-7.692552
 31
0.0
  0
LINE
  5
7A2
330
AC5
100
AcDbEntity
  8
V0-OBRYS
  6
CONTINUOUS
 62
    90
100
AcDbLine
 10
11.92312
 20
-6.692552
 30
0.0
 11
6.92312
 21
-6.692552
 31
0.0
  0
LINE
  5
7A3
330
AC5
100
AcDbEntity
  8
V0-OBRYS
  6
CONTINUOUS
 62
    90
100
AcDbLine
 10
11.92312
 20
-11.692552
 30
0.0
 11
6.92312
 21
-11.692552
 31
0.0
  0
LINE
  5
7A4
330
AC5
100
AcDbEntity
  8
V0-OBRYS
  6
CONTINUOUS
 62
    90
100
AcDbLine
 10
11.92312
 20
-10.692552
 30
0.0
 11
6.92312
 21
-10.692552
 31
0.0
  0
ARC
  5
7A5
330
AC5
100
AcDbEntity
  8
V0-OBRYS
  6
CONTINUOUS
 62
    90
100
AcDbCircle
 10
839.811137
 20
-3.192552
 30
0.0
 40
831.479633
100
AcDbArc
 50
182.86088
 51
183.067881
  0
LINE
  5
7A6
330
AC5
100
AcDbEntity
  8
V0-OBRYS
  6
CONTINUOUS
 62
    90
100
AcDbLine
 10
11.92312
 20
-47.692552
 30
0.0
 11
11.92312
 21
-44.692552
 31
0.0
  0
ARC
  5
7A7
330
AC5
100
AcDbEntity
  8
V0-OBRYS
  6
CONTINUOUS
 62
    90
100
AcDbCircle
 10
839.811137
 20
-3.192552
 30
0.0
 40
831.479633
100
AcDbArc
 50
181.757435
 51
181.964269
  0
LINE
  5
7A8
330
AC5
100
AcDbEntity
  8
V0-OBRYS
  6
CONTINUOUS
 62
    90
100
AcDbLine
 10
11.92312
 20
-31.692552
 30
0.0
 11
11.92312
 21
-28.692552
 31
0.0
  0
ARC
  5
7A9
330
AC5
100
AcDbEntity
  8
V0-OBRYS
  6
CONTINUOUS
 62
    90
100
AcDbCircle
 10
839.811137
 20
-3.192552
 30
0.0
 40
831.479633
100
AcDbArc
 50
180.930302
 51
181.13706
  0
ARC
  5
7AA
330
AC5
100
AcDbEntity
  8
V0-OBRYS
  6
CONTINUOUS
 62
    90
100
AcDbCircle
 10
839.811137
 20
-3.192552
 30
0.0
 40
831.479633
100
AcDbArc
 50
181.205983
 51
181.412762
  0
ARC
  5
7AB
330
AC5
100
AcDbEntity
  8
V0-OBRYS
  6
CONTINUOUS
 62
    90
100
AcDbCircle
 10
839.811137
 20
-3.192552
 30
0.0
 40
831.479633
100
AcDbArc
 50
181.481692
 51
181.688496
  0
LINE
  5
7AC
330
AC5
100
AcDbEntity
  8
V0-OBRYS
  6
CONTINUOUS
 62
    90
100
AcDbLine
 10
6.92312
 20
-16.692552
 30
0.0
 11
6.92312
 21
-15.692552
 31
0.0
  0
LINE
  5
7AD
330
AC5
100
AcDbEntity
  8
V0-OBRYS
  6
CONTINUOUS
 62
    90
100
AcDbLine
 10
6.92312
 20
-20.692552
 30
0.0
 11
6.92312
 21
-19.692552
 31
0.0
  0
LINE
  5
7AE
330
AC5
100
AcDbEntity
  8
V0-OBRYS
  6
CONTINUOUS
 62
    90
100
AcDbLine
 10
6.92312
 20
-24.692552
 30
0.0
 11
6.92312
 21
-23.692552
 31
0.0
  0
LINE
  5
7AF
330
AC5
100
AcDbEntity
  8
V0-OBRYS
  6
CONTINUOUS
 62
    90
100
AcDbLine
 10
6.92312
 20
-28.692552
 30
0.0
 11
6.92312
 21
-27.692552
 31
0.0
  0
LINE
  5
7B0
330
AC5
100
AcDbEntity
  8
V0-OBRYS
  6
CONTINUOUS
 62
    90
100
AcDbLine
 10
11.92312
 20
-16.692552
 30
0.0
 11
6.92312
 21
-16.692552
 31
0.0
  0
LINE
  5
7B1
330
AC5
100
AcDbEntity
  8
V0-OBRYS
  6
CONTINUOUS
 62
    90
100
AcDbLine
 10
11.92312
 20
-19.692552
 30
0.0
 11
11.92312
 21
-16.692552
 31
0.0
  0
LINE
  5
7B2
330
AC5
100
AcDbEntity
  8
V0-OBRYS
  6
CONTINUOUS
 62
    90
100
AcDbLine
 10
11.92312
 20
-15.692552
 30
0.0
 11
6.92312
 21
-15.692552
 31
0.0
  0
LINE
  5
7B3
330
AC5
100
AcDbEntity
  8
V0-OBRYS
  6
CONTINUOUS
 62
    90
100
AcDbLine
 10
11.92312
 20
-20.692552
 30
0.0
 11
6.92312
 21
-20.692552
 31
0.0
  0
LINE
  5
7B4
330
AC5
100
AcDbEntity
  8
V0-OBRYS
  6
CONTINUOUS
 62
    90
100
AcDbLine
 10
11.92312
 20
-23.692552
 30
0.0
 11
11.92312
 21
-20.692552
 31
0.0
  0
LINE
  5
7B5
330
AC5
100
AcDbEntity
  8
V0-OBRYS
  6
CONTINUOUS
 62
    90
100
AcDbLine
 10
11.92312
 20
-19.692552
 30
0.0
 11
6.92312
 21
-19.692552
 31
0.0
  0
LINE
  5
7B6
330
AC5
100
AcDbEntity
  8
V0-OBRYS
  6
CONTINUOUS
 62
    90
100
AcDbLine
 10
11.92312
 20
-24.692552
 30
0.0
 11
6.92312
 21
-24.692552
 31
0.0
  0
LINE
  5
7B7
330
AC5
100
AcDbEntity
  8
V0-OBRYS
  6
CONTINUOUS
 62
    90
100
AcDbLine
 10
11.92312
 20
-27.692552
 30
0.0
 11
11.92312
 21
-24.692552
 31
0.0
  0
LINE
  5
7B8
330
AC5
100
AcDbEntity
  8
V0-OBRYS
  6
CONTINUOUS
 62
    90
100
AcDbLine
 10
11.92312
 20
-23.692552
 30
0.0
 11
6.92312
 21
-23.692552
 31
0.0
  0
LINE
  5
7B9
330
AC5
100
AcDbEntity
  8
V0-OBRYS
  6
CONTINUOUS
 62
    90
100
AcDbLine
 10
11.92312
 20
-28.692552
 30
0.0
 11
6.92312
 21
-28.692552
 31
0.0
  0
LINE
  5
7BA
330
AC5
100
AcDbEntity
  8
V0-OBRYS
  6
CONTINUOUS
 62
    90
100
AcDbLine
 10
11.92312
 20
-27.692552
 30
0.0
 11
6.92312
 21
-27.692552
 31
0.0
  0
ARC
  5
7BB
330
AC5
100
AcDbEntity
  8
V0-OBRYS
  6
CONTINUOUS
 62
    90
100
AcDbCircle
 10
839.811137
 20
-3.192552
 30
0.0
 40
831.479633
100
AcDbArc
 50
182.033219
 51
182.240088
  0
ARC
  5
7BC
330
AC5
100
AcDbEntity
  8
V0-OBRYS
  6
CONTINUOUS
 62
    90
100
AcDbCircle
 10
839.811137
 20
-3.192552
 30
0.0
 40
831.479633
100
AcDbArc
 50
182.30905
 51
182.515958
  0
ARC
  5
7BD
330
AC5
100
AcDbEntity
  8
V0-OBRYS
  6
CONTINUOUS
 62
    90
100
AcDbCircle
 10
839.811137
 20
-3.192552
 30
0.0
 40
831.479633
100
AcDbArc
 50
182.584935
 51
182.791888
  0
LINE
  5
7BE
330
AC5
100
AcDbEntity
  8
V0-OBRYS
  6
CONTINUOUS
 62
    90
100
AcDbLine
 10
6.92312
 20
-32.692552
 30
0.0
 11
6.92312
 21
-31.692552
 31
0.0
  0
LINE
  5
7BF
330
AC5
100
AcDbEntity
  8
V0-OBRYS
  6
CONTINUOUS
 62
    90
100
AcDbLine
 10
6.92312
 20
-36.692552
 30
0.0
 11
6.92312
 21
-35.692552
 31
0.0
  0
LINE
  5
7C0
330
AC5
100
AcDbEntity
  8
V0-OBRYS
  6
CONTINUOUS
 62
    90
100
AcDbLine
 10
6.92312
 20
-40.692552
 30
0.0
 11
6.92312
 21
-39.692552
 31
0.0
  0
LINE
  5
7C1
330
AC5
100
AcDbEntity
  8
V0-OBRYS
  6
CONTINUOUS
 62
    90
100
AcDbLine
 10
6.92312
 20
-44.692552
 30
0.0
 11
6.92312
 21
-43.692552
 31
0.0
  0
LINE
  5
7C2
330
AC5
100
AcDbEntity
  8
V0-OBRYS
  6
CONTINUOUS
 62
    90
100
AcDbLine
 10
11.92312
 20
-32.692552
 30
0.0
 11
6.92312
 21
-32.692552
 31
0.0
  0
LINE
  5
7C3
330
AC5
100
AcDbEntity
  8
V0-OBRYS
  6
CONTINUOUS
 62
    90
100
AcDbLine
 10
11.92312
 20
-35.692552
 30
0.0
 11
11.92312
 21
-32.692552
 31
0.0
  0
LINE
  5
7C4
330
AC5
100
AcDbEntity
  8
V0-OBRYS
  6
CONTINUOUS
 62
    90
100
AcDbLine
 10
11.92312
 20
-31.692552
 30
0.0
 11
6.92312
 21
-31.692552
 31
0.0
  0
LINE
  5
7C5
330
AC5
100
AcDbEntity
  8
V0-OBRYS
  6
CONTINUOUS
 62
    90
100
AcDbLine
 10
11.92312
 20
-36.692552
 30
0.0
 11
6.92312
 21
-36.692552
 31
0.0
  0
LINE
  5
7C6
330
AC5
100
AcDbEntity
  8
V0-OBRYS
  6
CONTINUOUS
 62
    90
100
AcDbLine
 10
11.92312
 20
-39.692552
 30
0.0
 11
11.92312
 21
-36.692552
 31
0.0
  0
LINE
  5
7C7
330
AC5
100
AcDbEntity
  8
V0-OBRYS
  6
CONTINUOUS
 62
    90
100
AcDbLine
 10
11.92312
 20
-35.692552
 30
0.0
 11
6.92312
 21
-35.692552
 31
0.0
  0
LINE
  5
7C8
330
AC5
100
AcDbEntity
  8
V0-OBRYS
  6
CONTINUOUS
 62
    90
100
AcDbLine
 10
11.92312
 20
-40.692552
 30
0.0
 11
6.92312
 21
-40.692552
 31
0.0
  0
LINE
  5
7C9
330
AC5
100
AcDbEntity
  8
V0-OBRYS
  6
CONTINUOUS
 62
    90
100
AcDbLine
 10
11.92312
 20
-43.692552
 30
0.0
 11
11.92312
 21
-40.692552
 31
0.0
  0
LINE
  5
7CA
330
AC5
100
AcDbEntity
  8
V0-OBRYS
  6
CONTINUOUS
 62
    90
100
AcDbLine
 10
11.92312
 20
-39.692552
 30
0.0
 11
6.92312
 21
-39.692552
 31
0.0
  0
LINE
  5
7CB
330
AC5
100
AcDbEntity
  8
V0-OBRYS
  6
CONTINUOUS
 62
    90
100
AcDbLine
 10
11.92312
 20
-44.692552
 30
0.0
 11
6.92312
 21
-44.692552
 31
0.0
  0
LINE
  5
7CC
330
AC5
100
AcDbEntity
  8
V0-OBRYS
  6
CONTINUOUS
 62
    90
100
AcDbLine
 10
11.92312
 20
-43.692552
 30
0.0
 11
6.92312
 21
-43.692552
 31
0.0
  0
LINE
  5
7CD
330
AC5
100
AcDbEntity
  8
V0-OBRYS
  6
CONTINUOUS
 62
    90
100
AcDbLine
 10
6.92312
 20
-48.692552
 30
0.0
 11
6.92312
 21
-47.692552
 31
0.0
  0
LINE
  5
7CE
330
AC5
100
AcDbEntity
  8
V0-OBRYS
  6
CONTINUOUS
 62
    90
100
AcDbLine
 10
11.92312
 20
-48.692552
 30
0.0
 11
6.92312
 21
-48.692552
 31
0.0
  0
LINE
  5
7CF
330
AC5
100
AcDbEntity
  8
V0-OBRYS
  6
CONTINUOUS
 62
    90
100
AcDbLine
 10
11.92312
 20
-47.692552
 30
0.0
 11
6.92312
 21
-47.692552
 31
0.0
  0
ARC
  5
7D0
330
AC5
100
AcDbEntity
  8
V0-OBRYS
  6
CONTINUOUS
 62
    90
100
AcDbCircle
 10
16.517195
 20
-114.747438
 30
0.0
 40
5.0
100
AcDbArc
 50
90.0
 51
174.967741
  0
LINE
  5
7D1
330
AC5
100
AcDbEntity
  8
V0-OBRYS
  6
CONTINUOUS
 62
    90
 48
5.0
100
AcDbLine
 10
50.486404
 20
-264.739438
 30
0.0
 11
50.486404
 21
-109.747438
 31
0.0
  0
LINE
  5
7D3
330
AC5
100
AcDbEntity
  8
V0-OBRYS
  6
CONTINUOUS
 62
    90
 48
5.0
100
AcDbLine
 10
105.857204
 20
-235.787188
 30
0.0
 11
50.486404
 21
-235.787188
 31
0.0
  0
LINE
  5
7D4
330
AC5
100
AcDbEntity
  8
V0-OBRYS
  6
CONTINUOUS
 62
    90
 48
5.0
100
AcDbLine
 10
50.486404
 20
-138.199688
 30
0.0
 11
105.857204
 21
-138.199688
 31
0.0
  0
LINE
  5
7D5
330
AC5
100
AcDbEntity
  8
V0-VYPLNE
  6
DASHDOT
 62
    63
100
AcDbLine
 10
-11.167696
 20
-187.243438
 30
0.0
 11
111.669404
 21
-187.243438
 31
0.0
  0
ARC
  5
7D6
330
AC5
100
AcDbEntity
  8
V0-OBRYS
  6
CONTINUOUS
 62
    90
100
AcDbCircle
 10
836.919395
 20
-187.243438
 30
0.0
 40
831.479633
100
AcDbArc
 50
180.0
 51
183.722654
  0
LINE
  5
7D7
330
AC5
100
AcDbEntity
  8
V0-OBRYS
  6
CONTINUOUS
 62
    90
100
AcDbLine
 10
11.92312
 20
-187.243438
 30
0.0
 11
11.92312
 21
-243.566482
 31
0.0
  0
LINE
  5
7D8
330
AC5
100
AcDbEntity
  8
V0-OBRYS
  6
CONTINUOUS
 62
    90
 48
5.0
100
AcDbLine
 10
16.517195
 20
-264.739438
 30
0.0
 11
50.486404
 21
-264.739438
 31
0.0
  0
ARC
  5
7D9
330
AC5
100
AcDbEntity
  8
V0-OBRYS
  6
CONTINUOUS
 62
    90
100
AcDbCircle
 10
16.517195
 20
-259.739438
 30
0.0
 40
5.0
100
AcDbArc
 50
185.032259
 51
270.0
  0
LINE
  5
7DA
330
AC5
100
AcDbEntity
  8
V0-OBRYS
  6
CONTINUOUS
 62
    90
100
AcDbLine
 10
11.92312
 20
-243.566482
 30
0.0
 11
9.688886999999999
 21
-243.566482
 31
0.0
  0
POINT
  5
81D
330
AC5
100
AcDbEntity
  8
V0-VYPLNE
  6
CONTINUOUS
 62
    52
100
AcDbPoint
 10
50.486404
 20
-187.243438
 30
0.0
  0
ARC
  5
846
330
AC5
100
AcDbEntity
  8
V0-OBRYS
  6
CONTINUOUS
 62
    90
100
AcDbCircle
 10
839.811137
 20
-187.243438
 30
0.0
 40
831.479633
100
AcDbArc
 50
174.967741
 51
176.124234
  0
LINE
  5
849
330
AC5
100
AcDbEntity
  8
V0-OBRYS
  6
CONTINUOUS
 62
    90
100
AcDbLine
 10
11.92312
 20
-131.096087
 30
0.0
 11
11.92312
 21
-187.243438
 31
0.0
  0
LINE
  5
84B
330
AC5
100
AcDbEntity
  8
V0-OBRYS
  6
CONTINUOUS
 62
    90
100
AcDbLine
 10
9.677474999999999
 20
-131.096087
 30
0.0
 11
11.92312
 21
-131.096087
 31
0.0
  0
LINE
  5
84C
330
AC5
100
AcDbEntity
  8
V0-OBRYS
  6
CONTINUOUS
 62
    90
 48
5.0
100
AcDbLine
 10
105.857204
 20
-138.199688
 30
0.0
 11
105.857204
 21
-235.787188
 31
0.0
  0
LINE
  5
84D
330
AC5
100
AcDbEntity
  8
V0-OBRYS
  6
CONTINUOUS
 62
    90
 48
5.0
100
AcDbLine
 10
50.486404
 20
-109.747438
 30
0.0
 11
16.517195
 21
-109.747438
 31
0.0
  0
DIMENSION
  5
85B
330
AC5
100
AcDbEntity
  8
V0-VYPLNE
  6
CONTINUOUS
 62
    41
100
AcDbDimension
  2
*D8
 10
154.9264669999993
 20
-80.669178
 30
0.0
 11
148.4264669999993
 21
-3.192551999999992
 31
0.0
 70
    32
  3
ED5
100
AcDbAlignedDimension
 13
182.900007
 23
74.284074
 33
0.0
 14
182.900007
 24
-80.669178
 34
0.0
 50
90.0
100
AcDbRotatedDimension
1001
ACAD
1000
DSTYLE
1002
{
1070
    40
1040
1.0
1002
}
  0
DIMENSION
  5
868
330
AC5
100
AcDbEntity
  8
V0-VYPLNE
  6
CONTINUOUS
 62
    41
100
AcDbDimension
  2
*D9
 10
327.853259
 20
-101.2730170000068
 30
0.0
 11
250.376633
 21
-94.7730170000068
 31
0.0
 70
    32
  3
ED5
100
AcDbAlignedDimension
 13
172.900007
 23
-70.669178
 33
0.0
 14
327.853259
 24
-70.669178
 34
0.0
100
AcDbRotatedDimension
1001
ACAD
1000
DSTYLE
1002
{
1070
    40
1040
1.0
1002
}
  0
ARC
  5
87F
330
AC5
100
AcDbEntity
  8
V0-OBRYS
  6
CONTINUOUS
 62
    90
100
AcDbCircle
 10
836.919395
 20
-187.243438
 30
0.0
 40
831.479633
100
AcDbArc
 50
176.289515
 51
180.0
  0
ARC
  5
880
330
AC5
100
AcDbEntity
  8
V0-OBRYS
  6
CONTINUOUS
 62
    90
100
AcDbCircle
 10
839.811137
 20
-187.243438
 30
0.0
 40
831.479633
100
AcDbArc
 50
183.87427
 51
185.032259
  0
ARC
  5
882
330
AC5
100
AcDbEntity
  8
V0-OBRYS
  6
CONTINUOUS
 62
    90
100
AcDbCircle
 10
9.677474999999999
 20
-133.596087
 30
0.0
 40
2.5
100
AcDbArc
 50
90.0
 51
176.289515
  0
ARC
  5
883
330
AC5
100
AcDbEntity
  8
V0-OBRYS
  6
CONTINUOUS
 62
    90
100
AcDbCircle
 10
9.688886999999999
 20
-241.066482
 30
0.0
 40
2.5
100
AcDbArc
 50
183.722654
 51
270.0
  0
TEXT
  5
A9C
330
AC5
100
AcDbEntity
  8
V0-ZBYTEK
 62
    51
100
AcDbText
 10
183.308834
 20
-210.910556
 30
0.0
 40
13.5618
  1
MALY AXIALNI
  7
ED5
100
AcDbText
  0
TEXT
  5
A9D
330
AC5
100
AcDbEntity
  8
V0-ZBYTEK
 62
    51
100
AcDbText
 10
185.5253368095181
 20
-233.5135560000011
 30
0.0
 40
13.5618
  1
VENTILATOR
  7
ED5
100
AcDbText
  0
TEXT
  5
A9E
330
AC5
100
AcDbEntity
  8
V0-NAZVY
100
AcDbText
 10
170.0186504285715
 20
-183.273217
 30
0.0
 40
24.2175
  1
EDM 100
  7
ED5
100
AcDbText
  0
VIEWPORT
  5
B35
330
AC1
100
AcDbEntity
 67
     1
  8
0
 60
     1
100
AcDbViewport
 10
0.0
 20
0.0
 30
0.0
 40
10.0
 41
10.0
 68
     0
 69
     1
1001
VD_INVISIBLE_NOT_FOR_READ
1000
VD_INVISIBLE_NOT_FOR_READ
1001
ACAD
1000
MVIEW
1002
{
1070
    16
1010
0.0
1020
0.0
1030
0.0
1010
0.0
1020
0.0
1030
1.0
1040
6.2831853071796
1040
10.0
1040
0.0
1040
0.0
1040
0.0
1040
0.0
1040
0.0
1070
     0
1070
   100
1070
     0
1070
     1
1070
     0
1070
     0
1070
     0
1070
     0
1040
0.0
1040
0.0
1040
0.0
1040
1.0
1040
1.0
1040
0.0
1040
0.0
1070
     0
1002
{
1002
}
1002
}
  0
VIEWPORT
  5
B36
330
AC1
100
AcDbEntity
 67
     1
  8
0
 60
     1
100
AcDbViewport
 10
0.0
 20
0.0
 30
0.0
 40
10.0
 41
10.0
 68
     0
 69
     2
1001
VD_INVISIBLE_NOT_FOR_READ
1000
VD_INVISIBLE_NOT_FOR_READ
1001
ACAD
1000
MVIEW
1002
{
1070
    16
1010
0.0
1020
0.0
1030
0.0
1010
0.0
1020
0.0
1030
1.0
1040
6.2831853071796
1040
10.0
1040
0.0
1040
0.0
1040
0.0
1040
0.0
1040
0.0
1070
     0
1070
   100
1070
     0
1070
     1
1070
     0
1070
     0
1070
     0
1070
     0
1040
0.0
1040
0.0
1040
0.0
1040
1.0
1040
1.0
1040
0.0
1040
0.0
1070
     0
1002
{
1002
}
1002
}
  0
ENDSEC
  0
SECTION
  2
OBJECTS
  0
DICTIONARY
  5
AB2
330
0
100
AcDbDictionary
  3
ACAD_GROUP
350
AB3
  3
ACAD_LAYOUT
350
AC0
  3
ACAD_MLINESTYLE
350
ABD
  3
ACAD_PLOTSETTINGS
350
ABF
  3
ACDBHEADERROUNDTRIPXREC
350
B37
  3
VECTORDRAW_OBJECTS
350
AD5
  0
DICTIONARY
  5
B57
330
ACF
100
AcDbDictionary
280
     1
  3
ACAD_XREC_ROUNDTRIP
360
B58
  0
DICTIONARY
  5
AB3
102
{ACAD_REACTORS
330
AB2
102
}
330
AB2
100
AcDbDictionary
  0
DICTIONARY
  5
AC0
102
{ACAD_REACTORS
330
AB2
102
}
330
AB2
100
AcDbDictionary
  0
DICTIONARY
  5
ABD
102
{ACAD_REACTORS
330
AB2
102
}
330
AB2
100
AcDbDictionary
  3
STANDARD
350
ABE
  0
DICTIONARY
  5
ABF
102
{ACAD_REACTORS
330
AB2
102
}
330
AB2
100
AcDbDictionary
  0
DICTIONARY
  5
B37
102
{ACAD_REACTORS
330
AB2
102
}
330
AB2
100
AcDbDictionary
  3
CEPSNTYPE
350
B40
  3
DIMSTYLEDATA
350
B56
  3
FINGERPRINTGUID
350
B41
  3
HYPERLINKBASE
350
B3A
  3
INSUNITS
350
B3F
  3
LAYOUTDICT
350
B3C
  3
LWETCUNION
350
B3E
  3
PLOTSETDICT
350
B3D
  3
PSVPSCALE
350
B43
  3
PUCSBASE
350
B46
  3
PUCSORGBACK
350
B4C
  3
PUCSORGBOTTOM
350
B48
  3
PUCSORGFRONT
350
B4B
  3
PUCSORGLEFT
350
B49
  3
PUCSORGRIGHT
350
B4A
  3
PUCSORGTOP
350
B47
  3
PUCSORTHOREF
350
B44
  3
PUCSORTHOVIEW
350
B45
  3
STYLESHEET
350
B3B
  3
TSTACKALIGN
350
B38
  3
TSTACKSIZE
350
B39
  3
UCSBASE
350
B4F
  3
UCSORGBACK
350
B55
  3
UCSORGBOTTOM
350
B51
  3
UCSORGFRONT
350
B54
  3
UCSORGLEFT
350
B52
  3
UCSORGRIGHT
350
B53
  3
UCSORGTOP
350
B50
  3
UCSORTHOREF
350
B4D
  3
UCSORTHOVIEW
350
B4E
  3
VERSIONGUID
350
B42
  0
DICTIONARY
  5
AD5
102
{ACAD_REACTORS
330
AB2
102
}
330
AB2
100
AcDbDictionary
  3
SERIALNO
350
AD6
  0
XRECORD
  5
B58
102
{ACAD_REACTORS
330
B57
102
}
330
B57
100
AcDbXrecord
102
UCS
 74
     0
 71
     1
 10
0.0
 20
0.0
 30
0.0
 10
1.0
 20
0.0
 30
0.0
 10
0.0
 20
1.0
 30
0.0
146
0.0
 79
     0
102
VIEW
281
     0
  0
MLINESTYLE
  5
ABE
102
{ACAD_REACTORS
330
ABD
102
}
330
ABD
100
AcDbMlineStyle
  2
Standard
 70
     0
  3

 62
   256
 51
90.0
 52
90.0
 71
     2
 49
0.5
 62
   256
  6
BYLAYER
 49
-0.5
 62
   256
  6
BYLAYER
  0
XRECORD
  5
B40
102
{ACAD_REACTORS
330
B37
102
}
330
B37
100
AcDbXrecord
 90
        0
  0
XRECORD
  5
B56
102
{ACAD_REACTORS
330
B37
102
}
330
B37
100
AcDbXrecord
1000
DSTYLE
1002
{
1070
    41
 40
12.0
1070
   342
340
1D
1070
   271
 70
     0
1070
    44
 40
1.25
1070
    42
 40
1.0
1070
   147
 40
1.5
1070
    77
 70
     1
1070
    73
 70
     0
1070
   174
 70
     1
1070
   172
 70
     1
1070
    74
 70
     0
1070
   340
340
415
1070
   140
 40
10.0
1070
   288
 70
     1
1002
}
  0
XRECORD
  5
B41
102
{ACAD_REACTORS
330
B37
102
}
330
B37
100
AcDbXrecord
  1
{FAEB1C30-E019-11D5-929B-00C0DF256EC4}
  0
XRECORD
  5
B3A
102
{ACAD_REACTORS
330
B37
102
}
330
B37
100
AcDbXrecord
  1

  0
XRECORD
  5
B3F
102
{ACAD_REACTORS
330
B37
102
}
330
B37
100
AcDbXrecord
 90
        1
  0
XRECORD
  5
B3C
102
{ACAD_REACTORS
330
B37
102
}
330
B37
100
AcDbXrecord
340
AC0
  0
XRECORD
  5
B3E
102
{ACAD_REACTORS
330
B37
102
}
330
B37
100
AcDbXrecord
 90
     2560
  0
XRECORD
  5
B3D
102
{ACAD_REACTORS
330
B37
102
}
330
B37
100
AcDbXrecord
340
ABF
  0
XRECORD
  5
B43
102
{ACAD_REACTORS
330
B37
102
}
330
B37
100
AcDbXrecord
 40
0.0
  0
XRECORD
  5
B46
102
{ACAD_REACTORS
330
B37
102
}
330
B37
100
AcDbXrecord
340
0
  0
XRECORD
  5
B4C
102
{ACAD_REACTORS
330
B37
102
}
330
B37
100
AcDbXrecord
 10
0.0
 20
0.0
 30
0.0
  0
XRECORD
  5
B48
102
{ACAD_REACTORS
330
B37
102
}
330
B37
100
AcDbXrecord
 10
0.0
 20
0.0
 30
0.0
  0
XRECORD
  5
B4B
102
{ACAD_REACTORS
330
B37
102
}
330
B37
100
AcDbXrecord
 10
0.0
 20
0.0
 30
0.0
  0
XRECORD
  5
B49
102
{ACAD_REACTORS
330
B37
102
}
330
B37
100
AcDbXrecord
 10
0.0
 20
0.0
 30
0.0
  0
XRECORD
  5
B4A
102
{ACAD_REACTORS
330
B37
102
}
330
B37
100
AcDbXrecord
 10
0.0
 20
0.0
 30
0.0
  0
XRECORD
  5
B47
102
{ACAD_REACTORS
330
B37
102
}
330
B37
100
AcDbXrecord
 10
0.0
 20
0.0
 30
0.0
  0
XRECORD
  5
B44
102
{ACAD_REACTORS
330
B37
102
}
330
B37
100
AcDbXrecord
340
0
  0
XRECORD
  5
B45
102
{ACAD_REACTORS
330
B37
102
}
330
B37
100
AcDbXrecord
 70
     0
  0
XRECORD
  5
B3B
102
{ACAD_REACTORS
330
B37
102
}
330
B37
100
AcDbXrecord
  1

  0
XRECORD
  5
B38
102
{ACAD_REACTORS
330
B37
102
}
330
B37
100
AcDbXrecord
 90
        1
  0
XRECORD
  5
B39
102
{ACAD_REACTORS
330
B37
102
}
330
B37
100
AcDbXrecord
 90
       70
  0
XRECORD
  5
B4F
102
{ACAD_REACTORS
330
B37
102
}
330
B37
100
AcDbXrecord
340
0
  0
XRECORD
  5
B55
102
{ACAD_REACTORS
330
B37
102
}
330
B37
100
AcDbXrecord
 10
0.0
 20
0.0
 30
0.0
  0
XRECORD
  5
B51
102
{ACAD_REACTORS
330
B37
102
}
330
B37
100
AcDbXrecord
 10
0.0
 20
0.0
 30
0.0
  0
XRECORD
  5
B54
102
{ACAD_REACTORS
330
B37
102
}
330
B37
100
AcDbXrecord
 10
0.0
 20
0.0
 30
0.0
  0
XRECORD
  5
B52
102
{ACAD_REACTORS
330
B37
102
}
330
B37
100
AcDbXrecord
 10
0.0
 20
0.0
 30
0.0
  0
XRECORD
  5
B53
102
{ACAD_REACTORS
330
B37
102
}
330
B37
100
AcDbXrecord
 10
0.0
 20
0.0
 30
0.0
  0
XRECORD
  5
B50
102
{ACAD_REACTORS
330
B37
102
}
330
B37
100
AcDbXrecord
 10
0.0
 20
0.0
 30
0.0
  0
XRECORD
  5
B4D
102
{ACAD_REACTORS
330
B37
102
}
330
B37
100
AcDbXrecord
340
0
  0
XRECORD
  5
B4E
102
{ACAD_REACTORS
330
B37
102
}
330
B37
100
AcDbXrecord
 70
     0
  0
XRECORD
  5
B42
102
{ACAD_REACTORS
330
B37
102
}
330
B37
100
AcDbXrecord
  1
{FAEB1C32-E019-11D5-929B-00C0DF256EC4}
  0
XRECORD
  5
AD6
102
{ACAD_REACTORS
330
AD5
102
}
330
AD5
100
AcDbXrecord
1000
rInJVR9YY4Q8hfPWdUq5j5319
1070
     4
1070
     6
  0
ENDSEC
  0
EOF
